<?xml version="1.0" standalone="no"?>
<!DOCTYPE svg PUBLIC "-//W3C//DTD SVG 1.1//EN" "http://www.w3.org/Graphics/SVG/1.1/DTD/svg11.dtd" >
<svg xmlns="http://www.w3.org/2000/svg">
<metadata></metadata>
<defs>
<font id="osclassultralight" horiz-adv-x="1187" >
<font-face units-per-em="2048" ascent="1649" descent="-399" />
<missing-glyph horiz-adv-x="395" />
<glyph unicode="&#xfb01;" horiz-adv-x="1026" d="M6 946v35h180v86q0 96 29 176q27 76 80 131q100 104 274 105q20 0 60.5 -4.5t68.5 -20.5l17 -10l-6 -27q-8 -27 -33 -26q-14 0 -23.5 2t-19.5 5t-24.5 5t-39.5 2q-68 0 -123 -19q-57 -23 -96 -61q-37 -37 -63 -102q-23 -72 -23 -156v-86h572v-1014h-78v940h-494v-940h-78 v942l-141 2q-10 0 -22 7q-16 10 -17 28z" />
<glyph unicode="&#xfb02;" horiz-adv-x="1110" d="M8 948v35h180v51q0 199 111 322q113 123 307 123l293 -15v-26v-1442v-27h-27h-24h-27v27v1399q-53 4 -107.5 7t-107.5 3q-84 0 -145 -27q-61 -25 -105 -73q-43 -45 -67 -115q-23 -74 -23 -156v-51h318v-74h-318v-940h-78v940l-141 4q-14 0 -22 7q-16 10 -17 28z" />
<glyph horiz-adv-x="0" />
<glyph unicode="&#xd;" horiz-adv-x="0" />
<glyph horiz-adv-x="0" />
<glyph horiz-adv-x="0" />
<glyph unicode=" "  horiz-adv-x="395" />
<glyph unicode="&#x09;" horiz-adv-x="395" />
<glyph unicode="&#xa0;" horiz-adv-x="395" />
<glyph unicode="!" horiz-adv-x="624" d="M268 -23v211h78v-211h-78zM270 784v84v613h82v-613q0 -88 -1 -179t-5 -208h-67q-2 72 -4.5 125t-3.5 96t-1 82z" />
<glyph unicode="&#x22;" horiz-adv-x="698" d="M182 1128v328h74v-328l-2 -155q0 -16 -10.5 -25.5t-24.5 -9.5q-35 0 -35 35zM442 1128v328h74v-328l-2 -155q0 -16 -10 -25.5t-25 -9.5q-35 0 -35 35z" />
<glyph unicode="#" d="M88 489v27h242l90 402h-248h-27v32q0 39 41 39h246l98 434q6 37 52 37h32l-6 -33l-98 -438h295l106 471h31q37 0 37 -35v-9t-4 -15l-1 -7q-1 -8 -10.5 -46.5t-27.5 -121.5t-53 -237h207h26v-33q0 -39 -41 -38h-207l-88 -402h238q41 0 41 -39v-33h-293l-104 -471h-23h-6 q-20 0 -29.5 11.5t-9.5 23.5q0 2 2 12.5t11 52.5t28.5 129t54.5 242h-297l-96 -432q-6 -39 -43 -39h-43l106 471h-188q-41 0 -41 45zM408 516h294l91 402h-297z" />
<glyph unicode="$" d="M160 172l16 16l4 5h2q10 14 29 14q14 0 23.5 -8.5t25.5 -24.5q14 -16 40 -39.5t62.5 -45t87 -39t115.5 -19.5l25 696q-61 23 -122.5 47.5t-111.5 63.5q-119 94 -118 262q0 74 27.5 140.5t78.5 117.5q53 51 120.5 80.5t151.5 34.5l7 167q0 23 12 33t27 10h10h28l-2 -28 l-6 -182q96 -6 172 -42t144 -106l14 -16l-12 -17l-4 -6q-10 -18 -33 -18q-12 0 -22.5 7t-24.5 21q-14 12 -34 28.5t-48.5 32t-66.5 27t-87 15.5l-22 -615q72 -23 140.5 -49t121.5 -67q131 -94 131 -265q0 -90 -29 -170q-29 -76 -88 -141q-117 -121 -305 -133l-8 -223 q0 -23 -11.5 -33t-27.5 -10h-10h-27v26l8 238q-63 2 -116.5 15.5t-100.5 35.5q-88 45 -172 144zM313 1100q0 -127 93 -199q39 -31 87 -52.5t101 -39.5l20 590q-66 -6 -121 -29.5t-96 -64.5t-62.5 -93.5t-21.5 -111.5zM641 33q154 12 248 110q47 51 71.5 116.5t24.5 139.5 q0 133 -100 207q-45 35 -101.5 56.5t-117.5 42.5z" />
<glyph unicode="%" horiz-adv-x="1536" d="M74 1085q0 92 22 170q25 72 68 121t100 74q57 23 123 23q63 0 121 -23q57 -25 100 -74t68 -121q25 -74 24 -170q0 -94 -24 -167q-25 -72 -68 -121q-45 -49 -100 -72q-55 -25 -121 -25q-68 0 -123 25q-55 23 -100 72q-43 49 -68 121q-23 78 -22 167zM150 1085 q0 -82 18 -145q16 -53 53 -96q61 -72 166 -72q104 0 166 72q33 39 51 96q10 33 15.5 68.5t5.5 76.5t-5.5 78t-15.5 68q-18 59 -51 98q-62 72 -166 72t-166 -72q-35 -41 -53 -98q-18 -61 -18 -146zM188 -31l29 43l1012 1424q12 20 39 20h14h51l-30 -41l-1010 -1425 q-14 -20 -39 -21h-14h-52zM831 338q0 92 23 170q25 72 68 121t100 73q57 23 123 23q63 0 121 -23q57 -25 100 -73q43 -49 68 -121q25 -74 24 -170q0 -94 -24 -168q-25 -72 -68 -121q-45 -49 -100 -72q-55 -25 -121 -24q-68 0 -123 24q-55 23 -100 72q-43 49 -68 121 q-23 78 -23 168zM907 338q0 -82 19 -145q16 -53 53 -97q61 -72 166 -71q105 -1 166 71q33 39 51 97q10 33 15 68.5t5 76.5t-5 78t-15 67q-18 59 -51 99q-61 72 -166 71q-104 0 -166 -71q-35 -41 -53 -99q-18 -61 -19 -145z" />
<glyph unicode="&#x26;" horiz-adv-x="1394" d="M104 354q0 78 29 153t86 138q51 59 123 107q29 16 56.5 31.5t58.5 25.5q-37 41 -61.5 75t-43.5 66q-45 90 -45 189q0 76 27 137q14 31 32.5 58.5t45.5 49.5q47 45 116 70q68 25 148 25q61 0 121.5 -22.5t109.5 -63.5q49 -43 76 -95q31 -59 31 -116v-27h-33q-6 0 -21.5 6 t-21.5 31v2v2q-4 35 -24.5 71t-43.5 58q-27 29 -74.5 54.5t-119.5 25.5q-68 0 -119 -19q-27 -10 -49.5 -23t-42.5 -32q-37 -35 -59 -84q-20 -47 -21 -108q0 -88 47 -170q23 -41 59.5 -85t88.5 -91l462 -445q18 29 34 60.5t30 66.5q29 78 37 156l2 2q0 12 8 20q12 12 31 13 h35v-27q-4 -82 -35 -171t-84 -173l332 -320h-89q-23 0 -43 19l-245 237q-88 -113 -207 -184q-152 -88 -320 -88q-80 0 -154.5 26.5t-133.5 73.5q-63 51 -99 125q-37 76 -37 170zM182 354q0 -94 37 -152.5t78 -88.5q47 -37 108.5 -58.5t122.5 -21.5q156 0 285 80 q106 63 188 170l-489 469q-68 -23 -123 -60q-66 -41 -110 -94q-47 -53 -72 -115.5t-25 -128.5z" />
<glyph unicode="'" horiz-adv-x="438" d="M184 1126v301v27h27h20h27v-27v-301l-2 -155q0 -14 -10 -24.5t-25 -10.5q-16 0 -25.5 10t-9.5 25z" />
<glyph unicode="(" horiz-adv-x="614" d="M180 645q0 125 14.5 234.5t47.5 214.5q68 223 225 458l14 23l21 -14l10 -5q18 -10 18 -30q0 -12 -10 -27q-66 -102 -114 -201q-51 -106 -84 -208t-50 -218q-10 -55 -13 -111t-3 -116q0 -117 15.5 -226t50.5 -218q35 -106 83 -206.5t115 -203.5q10 -10 10 -24 q0 -18 -16 -31h-2l-10 -6l-21 -13l-14 21q-41 61 -74 119.5t-61 117.5q-29 57 -51.5 111.5t-38.5 112.5q-33 104 -47.5 212.5t-14.5 233.5z" />
<glyph unicode=")" horiz-adv-x="614" d="M80 -233q0 14 10 24q68 102 116 203t83 207q35 109 50 218t15 226q0 59 -3 115.5t-13 111.5q-16 115 -49 218q-33 102 -84 208q-49 98 -115 201q-10 14 -10 27q0 20 18 30l11 5l20 14l14 -23q158 -236 226 -458q33 -104 47 -214t14 -235t-14.5 -233.5t-46.5 -212.5 q-16 -57 -39 -111.5t-51 -112.5q-29 -59 -62 -117.5t-74 -119.5l-14 -21l-20 13l-11 6h-2q-16 12 -16 31z" />
<glyph unicode="*" horiz-adv-x="819" d="M115 1094l22 14l150 82q23 10 49 17t55 18h2h-2q-29 10 -56.5 15t-47.5 15l-150 86l-22 13l14 24l10 19l13 22l22 -12l148 -86q20 -14 36.5 -36.5t38.5 -43.5h2q-2 0 -2 2q-6 33 -15 56.5t-9 52.5v159v27h26h13h12h27v-27v-159q0 -29 -10.5 -52.5t-16.5 -56.5v-2 q23 20 39 43t39 37l145 86l25 12l12 -22l10 -19l13 -24l-23 -13l-147 -86q-23 -10 -50.5 -15t-56.5 -15q29 -10 55.5 -17.5t49.5 -17.5l149 -82l23 -14l-13 -23l-10 -18l-12 -23l-25 12l-151 86q-23 14 -37.5 37t-34.5 41v2v-2q4 -29 15.5 -53.5t11.5 -50.5v-166v-27h-27 h-12h-13h-26v27v166q0 27 10 51.5t14 52.5l2 2h-2v-2q-20 -18 -34.5 -40.5t-34.5 -37.5l-154 -86l-22 -12l-13 23l-10 18z" />
<glyph unicode="+" d="M94 647v74h461v481h74v-481h463v-74h-463v-483h-47h-27v483h-461z" />
<glyph unicode="," horiz-adv-x="378" d="M129 -184q16 8 26.5 25.5t16.5 38t8 42t2 35.5h-32v141q0 16 14 17h63v-158q0 -59 -21.5 -114.5t-76.5 -75.5v49z" />
<glyph unicode="-" horiz-adv-x="655" d="M74 561v74h504v-74h-504z" />
<glyph unicode="." horiz-adv-x="233" d="M74 -61v211h78v-211h-78z" />
<glyph unicode="/" horiz-adv-x="700" d="M-41 -113l14 37l656 1542l2 2q12 27 43 27h10h41l-16 -37l-656 -1542q-4 -10 -14 -19.5t-33 -9.5h-8h-39z" />
<glyph unicode="0" d="M59 717q0 182 41 334q39 137 115 237q74 96 170 142q92 47 209 47q115 0 207 -47q94 -45 172 -142q75 -102 112 -237q43 -147 43 -334q0 -186 -43 -334q-37 -137 -112 -236q-37 -47 -80 -82.5t-92 -58.5q-98 -47 -207 -47q-111 0 -209 47q-96 45 -170 141t-115 236 q-41 152 -41 334zM137 717q0 -176 37 -311q33 -121 100 -211q121 -162 320 -162q197 0 317 162q66 86 99 211q39 131 39 311t-39 311q-35 127 -99 213q-121 162 -317 162q-199 0 -320 -162q-68 -90 -100 -213q-37 -135 -37 -311z" />
<glyph unicode="1" horiz-adv-x="724" d="M57 1085l428 388h52v-1496h-78v1369l-322 -291q-12 -12 -28 -13q-16 0 -29 15h-2v2z" />
<glyph unicode="2" d="M125 2q0 16 6 23.5t10 11.5l516 524q66 66 120 126.5t95 121.5q45 66 65.5 130.5t20.5 129.5q0 82 -28 150q-14 29 -32.5 54t-45.5 46q-45 39 -105.5 58.5t-132.5 19.5q-150 0 -247 -86q-47 -41 -78 -99.5t-43 -128.5q-6 -39 -43 -39h-10h-31l4 31q25 182 147 289 q123 106 301 106q86 0 160 -23.5t129 -70.5q63 -55 96 -125q37 -80 37 -182q0 -84 -26 -158q-25 -72 -72 -141q-43 -66 -100.5 -126t-118.5 -126l-467 -475h786q37 0 37 -37v-12v-27h-950v27v8z" />
<glyph unicode="3" d="M123 360l24 13l5 2q2 0 6 1t8 1q23 0 35 -19q8 -16 10 -26v-2q10 -47 30.5 -90t49.5 -78q106 -129 315 -129q115 0 186.5 38t110.5 79q47 49 72.5 110.5t25.5 120.5q0 70 -22 127q-27 61 -74 100q-49 43 -131 70q-43 12 -93 19.5t-108 7.5h-26v26v17v26h26q178 6 285 94 q102 86 103 226q0 86 -30 145t-77 96t-107.5 53.5t-121.5 16.5q-150 0 -248 -86q-49 -41 -80 -99.5t-43 -127.5q-4 -23 -16.5 -31t-24.5 -8h-10h-31l4 30q25 182 148 289q123 106 301 107q84 0 151 -21q80 -27 133 -69q61 -49 95 -121q35 -80 34 -174q0 -74 -28 -144 q-29 -66 -80 -114q-49 -49 -111 -80q-4 -2 -9 -4t-9 -4q23 -6 53 -19q35 -16 66.5 -35.5t56.5 -46.5q102 -102 102 -266q0 -80 -35 -162q-39 -78 -100 -133q-66 -61 -152.5 -94t-185.5 -33q-121 0 -221 39q-84 33 -141 98q-47 49 -78 125q-14 35 -23.5 65.5t-13.5 53.5z" />
<glyph unicode="4" d="M57 477l6 10l750 986h55v-973h277h26v-27v-8q0 -20 -14 -31q-10 -8 -29 -8h-260v-442h-77v442h-685q-18 0 -26 6q-8 4 -11 9l-6 10v2l-2 2v2l-2 8zM168 500h623v817z" />
<glyph unicode="5" d="M139 88l15 23l6 8q12 16 35 16q10 0 41 -18q35 -18 106.5 -48t181.5 -30q88 0 164 27.5t133 80.5q127 115 127 316q0 84 -24 151q-12 35 -29.5 65t-42.5 52q-49 53 -121 78q-41 16 -86 22.5t-96 6.5q-61 0 -131 -9.5t-148 -29.5l-8 -2l-10 4l-19 8l-18 8l4 21l109 604 l4 22h22h615h26v-26v-11q0 -16 -12 -27t-29 -11h-557l-92 -506q131 29 244 28q119 0 205 -32q90 -32 151 -93q123 -123 123 -325q0 -113 -41 -211q-41 -94 -110 -158q-70 -66 -160 -98.5t-193 -32.5q-113 0 -211 33q-92 33 -153 78z" />
<glyph unicode="6" d="M139 440q0 43 11.5 91.5t33.5 101.5q25 57 63 119.5t87 130.5l414 559q4 6 12 12t20 6h76l-459 -620q-10 -12 -18 -24.5t-19 -24.5q4 2 6.5 4t6.5 4q115 66 252 65q51 0 97 -8t89 -25q82 -35 143 -94q57 -59 93 -143q31 -84 30 -180q0 -98 -35 -187q-37 -84 -102 -143 q-63 -59 -154 -94q-86 -33 -192 -33q-102 0 -182 33q-84 31 -144 94q-129 133 -129 356zM217 424q0 -82 27 -158q29 -72 78 -125q47 -51 116 -82q74 -28 156 -28q92 0 169 27.5t130 80.5t80 121t26 154q0 174 -102 276q-104 100 -270 101q-92 0 -174 -35q-74 -31 -129 -86 q-25 -27 -45.5 -56.5t-34.5 -62.5q-12 -31 -19.5 -63.5t-7.5 -63.5z" />
<glyph unicode="7" d="M121 1421v37h26h963v-39q0 -14 -6 -26l-713 -1395q-4 -8 -14 -17.5t-33 -9.5h-55l723 1411h-852q-39 0 -39 39z" />
<glyph unicode="8" d="M115 367q0 94 30 168q31 70 86 122q61 59 162 95q-41 18 -76.5 42.5t-64.5 59.5q-84 100 -84 240q0 80 29.5 149.5t83.5 122.5q59 55 135 82q82 29 176 29t176 -29q74 -27 135 -82q53 -53 83 -122.5t30 -149.5q0 -137 -86 -240q-53 -63 -142 -102q103 -36 164 -95 q55 -53 86 -122q31 -74 31 -168t-37 -170q-33 -76 -98 -131q-63 -51 -152 -80q-92 -29 -190 -29q-100 0 -191 29q-88 29 -151 80q-63 55 -100 131q-35 80 -35 170zM193 367q0 -150 110 -244q51 -41 125 -68q76 -25 164 -24q88 0 162 24q76 25 127 68q111 94 110 244 q0 186 -139 276q-57 35 -129 53q-33 8 -65.5 11.5t-65.5 3.5q-35 0 -67.5 -3t-63.5 -12q-72 -18 -129 -53q-139 -90 -139 -276zM246 1094q0 -61 21.5 -116.5t62.5 -96.5q96 -96 262 -97q168 0 260 97q41 41 63.5 96t22.5 117q0 66 -25 125q-23 55 -65 96q-98 88 -256 88 q-162 0 -256 -88q-43 -39 -68 -96q-23 -61 -22 -125z" />
<glyph unicode="9" d="M170 1032q0 92 35 174t100 142q66 59 151 92t181 33q47 0 90 -8.5t84 -24.5q80 -35 139 -97q61 -61 92 -147q33 -84 33 -188q0 -96 -49 -203q-23 -49 -56.5 -102.5t-80.5 -122.5l-400 -592q-4 -6 -11 -12.5t-19 -6.5h-74l440 652q10 10 17.5 22t15.5 23h-4 q-111 -68 -246 -68q-100 0 -180 33q-80 31 -139 90q-57 61 -88 139q-31 80 -31 172zM248 1032q0 -168 100 -264q47 -47 113 -72q63 -25 145 -24q94 0 168 33q68 27 123 81q49 53 76 115q25 57 24 121q0 82 -26.5 150.5t-74.5 118.5t-114.5 79t-144.5 29q-41 0 -81 -7.5 t-77 -19.5q-72 -29 -123 -76q-51 -49 -80 -114q-29 -70 -28 -150z" />
<glyph unicode=":" horiz-adv-x="460" d="M190 -29v211h78v-211h-78zM190 799v211h78v-211h-78z" />
<glyph unicode=";" horiz-adv-x="460" d="M160 -184q16 8 26.5 25.5t16.5 38t8 42t2 35.5h-33v141q0 16 15 17h63v-158q0 -59 -21.5 -114.5t-76.5 -75.5v49zM180 799v211h78v-211h-78z" />
<glyph unicode="&#x3c;" d="M147 664v16v12v17l15 8l747 381l39 20v-45v-12q0 -20 -14 -29.5t-23 -13.5l-649 -332l649 -330q25 -10 31 -24.5t6 -22.5v-10v-43l-39 20l-747 381z" />
<glyph unicode="=" d="M156 502v73h872v-73h-872zM156 803v74h872v-74h-872z" />
<glyph unicode="&#x3e;" d="M240 256v43v10q0 8 6 22.5t30 24.5l650 330l-650 332q-8 4 -22 13t-14 30v12v45l39 -20l747 -381l14 -8v-17v-12v-16l-14 -7l-747 -381z" />
<glyph unicode="?" horiz-adv-x="710" d="M-4 1317l16 16q66 66 133 101q90 47 195 47q68 0 131 -23q63 -20 113 -61q53 -44 80 -101q31 -61 30 -133q0 -133 -78 -231q-33 -41 -72.5 -74t-76.5 -59q-49 -35 -82 -66t-35 -67l-6 -201h-70v205q0 59 44 101t100 83q35 29 70.5 57.5t64.5 63.5q63 82 63 188 q0 68 -27.5 111t-56.5 67q-39 33 -88 48q-49 18 -104 18q-53 0 -96 -12.5t-75 -30.5t-54.5 -36.5t-34.5 -31.5q-20 -20 -35 -20q-10 0 -16 4t-11 8zM270 -53v211h78v-211h-78z" />
<glyph unicode="@" horiz-adv-x="1681" d="M100 549q0 176 62 330q57 143 168 258q104 111 245 170q141 61 297 61q137 0 265 -41q129 -43 225 -127q102 -86 158 -213q57 -129 57 -297q0 -113 -29 -211q-33 -96 -82 -164q-57 -72 -123 -106q-72 -37 -151 -37q-84 0 -134 40t-63 116q-39 -57 -86 -90 q-82 -59 -184 -60q-117 0 -178 80q-57 74 -58 186q0 94 36 184.5t102 162.5q70 80 159 118q100 47 211 47q49 0 95.5 -9t76.5 -25l19 -9l-4 -22l-90 -344q-27 -88 -27 -164q0 -82 39 -113q27 -25 88 -24q125 0 211 114q43 55 70 140q27 82 26 190q0 154 -51 268 q-45 109 -137 189q-41 35 -91.5 63.5t-109.5 46.5q-111 37 -240 37q-137 0 -262 -55q-123 -51 -223 -152q-98 -102 -154 -235q-29 -72 -43 -147.5t-14 -155.5q0 -172 55.5 -311.5t161.5 -237.5q94 -90 230 -141q135 -47 280 -47q293 0 512 145q8 6 23 6q23 0 35 -20l6 -11 l10 -20l-19 -14q-244 -162 -567 -162q-84 0 -161.5 12t-149.5 41q-145 51 -256 156q-117 111 -176.5 263t-59.5 341zM567 444q0 -86 41 -139q43 -53 121 -53q90 0 156 59q86 76 135 254l78 305q-20 6 -43 9.5t-58 3.5q-92 0 -178 -41q-76 -33 -135 -103q-53 -59 -86 -141 q-31 -78 -31 -154z" />
<glyph unicode="A" horiz-adv-x="1257" d="M-20 -27l620 1487h55l621 -1487h-57q-31 0 -37 27l-193 463h-721l-192 -463q-10 -27 -39 -27h-57zM299 537h659l-329 790z" />
<glyph unicode="B" horiz-adv-x="1302" d="M223 -29v1487h400q236 0 358 -98q121 -98 121 -285q0 -72 -27 -133q-23 -61 -74 -115q-59 -61 -131 -92q113 -31 185 -94q57 -49 85.5 -117.5t28.5 -148.5q0 -100 -32 -172q-35 -78 -101 -129q-31 -27 -69.5 -45.5t-83.5 -32.5q-92 -25 -205 -25h-455zM301 45h377 q104 0 178 21q78 22 129 63q106 82 107 246q0 143 -109 227q-115 86 -303 86h-379v-643zM301 762h332q104 0 186 29q74 29 121 75q41 41 63.5 95.5t22.5 113.5q0 76 -25 131q-20 53 -71 97q-103 81 -302 81h-5h-322v-622z" />
<glyph unicode="C" horiz-adv-x="1472" d="M129 719q0 170 51 309q49 137 146 240q98 104 225 155q135 55 291 56q152 0 266 -43q53 -20 102.5 -52t106.5 -79l18 -15l-20 -28q-12 -14 -27 -15q-12 0 -24.5 7.5t-28.5 21.5q-18 16 -50 38.5t-79 42t-112.5 34t-151.5 14.5q-135 0 -258 -47q-113 -45 -199 -135 q-84 -90 -131 -217q-47 -131 -47 -287q0 -315 176 -504q80 -88 195 -135q113 -47 243 -47q162 0 271 47q49 20 95 52t99 79q12 12 27 12q14 0 24 -10l31 -27l-20 -20q-100 -98 -220 -150q-133 -57 -307 -57q-147 0 -276 53t-221 152q-96 104 -144 239q-51 141 -51 316z" />
<glyph unicode="D" horiz-adv-x="1568" d="M211 -27v1487h539q152 0 278 -49q66 -25 120 -62.5t99 -84.5q96 -98 144.5 -236.5t48.5 -310.5q0 -170 -48.5 -308.5t-144.5 -238.5q-90 -96 -219 -145q-123 -51 -278 -52h-539zM289 47h461q279 0 440 174q82 84 125 209q45 123 45 287q0 162 -45 289q-43 125 -125 208 q-162 172 -440 172h-461v-1339z" />
<glyph unicode="E" horiz-adv-x="1228" d="M225 -29v1487h891v-76h-813v-618h690v-76h-690v-641h817l-6 -76h-889z" />
<glyph unicode="F" horiz-adv-x="1181" d="M221 -29v1487h891v-76h-813v-639h711v-75h-711v-697h-78z" />
<glyph unicode="G" horiz-adv-x="1558" d="M133 719q0 172 49 312t148 241q201 207 536 207q82 0 150.5 -10.5t128.5 -30.5q115 -43 213 -131l16 -15l-10 -18l-4 -6v-2l-4 -2q-12 -14 -27 -15q-10 0 -19.5 6.5t-23.5 16.5q-18 16 -50 37.5t-81 42.5q-125 53 -289 53q-301 0 -477 -182q-90 -92 -131 -215 q-25 -66 -36 -137.5t-11 -151.5q0 -158 44 -286t130 -220q86 -90 201.5 -135t257.5 -45q84 0 152.5 9t129.5 28q53 16 102.5 38.5t106.5 57.5v405h-295q-18 0 -26 9q-12 8 -13 28v10v27h27h356h27v-27v-475v-14l-12 -8q-61 -41 -119.5 -69.5t-120.5 -49.5q-141 -43 -315 -43 q-162 0 -291 51q-133 53 -225 154q-195 207 -195 555z" />
<glyph unicode="H" horiz-adv-x="1548" d="M221 -31v1487h78v-694h954v694h78v-1487h-78v717h-954v-717h-78z" />
<glyph unicode="I" horiz-adv-x="598" d="M262 -25v1487h78v-1487h-78z" />
<glyph unicode="J" horiz-adv-x="946" d="M80 0l8 25l2 6v2q8 16 20.5 21t16.5 5q10 0 20.5 -2t22.5 -6q20 -6 48 -12t71 -6q84 0 149 26q63 25 111 78q47 57 72 135q24 79 24 185v8v997h78v-997q0 -125 -31 -219q-31 -96 -88 -160q-59 -61 -139 -96q-80 -31 -176 -31q-86 0 -185 31z" />
<glyph unicode="K" horiz-adv-x="1314" d="M258 -29v1489h78v-694h70q35 0 48 5t33 24l668 641h2q14 10 24.5 16t28.5 6h80l-49 -45l-696 -668l-17 -16q4 -4 7.5 -6t7.5 -6l739 -699l49 -47h-78q-20 0 -30.5 5.5t-24.5 17.5l-704 665q-27 25 -40.5 29t-47.5 4h-70v-721h-78z" />
<glyph unicode="L" horiz-adv-x="1042" d="M223 -29v1487h78v-1411h731v-76h-809z" />
<glyph unicode="M" horiz-adv-x="1841" d="M225 -8v26v1434v27h27h8q27 0 37 -23l641 -1075l618 1075q12 23 37 23h9h26v-27v-1434v-26h-26h-21h-27v26v1289l-575 -1006h-2v-2q-4 -4 -12.5 -12t-24.5 -8h-6q-16 0 -23.5 8t-11.5 12l-2 2l-598 1008v-1291v-26h-27h-20h-27z" />
<glyph unicode="N" horiz-adv-x="1548" d="M217 0v1434v26h27h8q23 0 37 -20l964 -1313v1307v26h27h20h27v-26v-1434v-27h-27h-6q-23 0 -34 19l-969 1319v-1311v-27h-27h-20h-27v27z" />
<glyph unicode="O" horiz-adv-x="1632" d="M125 719q0 172 49 313q51 141 141 242q92 98 220 151q63 29 132.5 41.5t145.5 12.5t145.5 -12.5t133.5 -41.5q127 -53 219 -151q94 -102 143 -242.5t49 -312.5q0 -170 -49 -310.5t-143 -242.5q-92 -98 -219 -152q-129 -53 -279 -53t-278 53q-127 53 -220 152 q-94 102 -142 242.5t-48 310.5zM203 719q0 -315 172 -504q80 -86 192 -133q113 -47 246 -47q135 0 246.5 46t193.5 134q84 92 127 219t43 285t-43 286t-127 220q-82 90 -193.5 135t-246.5 45q-66 0 -128 -11.5t-118 -35.5q-113 -47 -192 -133q-172 -188 -172 -506z" />
<glyph unicode="P" horiz-adv-x="1185" d="M258 2v1434v26h27h323q246 0 377 -106q135 -111 135 -330q0 -96 -39 -174q-39 -82 -106 -139q-68 -59 -162 -90q-47 -16 -99 -24.5t-106 -8.5h-272v-588v-27h-27h-24h-27v27zM336 664h272q98 0 180 28q76 27 138 78q55 49 86 115q30 66 30 136q0 51 -7 90.5t-19 74.5 q-29 70 -80 110q-109 92 -328 93h-272v-725z" />
<glyph unicode="Q" horiz-adv-x="1632" d="M127 719q0 174 51 313q49 137 141 240q96 102 220 153q129 53 276 54q150 0 281 -54q127 -53 219 -151q190 -209 190 -555q0 -233 -90 -410q-43 -86 -108 -151q-25 -29 -53.5 -51.5t-61.5 -43.5l358 -376l41 -45h-61h-23q-27 0 -39 16l-346 367q-135 -63 -307 -64 q-74 0 -143.5 12.5t-132.5 38.5q-127 53 -220 154q-94 102 -143 241.5t-49 311.5zM205 719q0 -158 43 -285t129 -219q84 -90 192 -135q111 -45 246 -45t247 45t193 135q86 92 128 219t42 285t-42 286t-128 220q-82 88 -193.5 134t-246.5 46q-129 0 -246 -47 q-106 -45 -192 -133q-86 -92 -129 -221.5t-43 -284.5z" />
<glyph unicode="R" horiz-adv-x="1269" d="M250 2v1434v26h26h332q111 0 205 -22q92 -25 156 -70q131 -100 131 -293q0 -94 -37 -170q-39 -78 -102 -127q-111 -92 -287 -108l549 -654l37 -43h-58h-16q-14 0 -24.5 3.5t-22.5 17.5l-537 643q-14 16 -25.5 22.5t-52.5 6.5h-196v-666v-27h-27h-25h-26v27zM328 741h262 q98 0 179 22.5t138 67.5t84 105q31 63 31 141q0 76 -27 140q-27 57 -77 96q-104 76 -310 76h-280v-648z" />
<glyph unicode="S" horiz-adv-x="1056" d="M82 170l20 20h2q10 14 29 15q14 0 23.5 -8.5t25.5 -24.5q16 -18 43 -43t67 -47.5t95 -37.5t129 -15q90 0 163 27.5t126 80.5q51 49 76.5 115.5t25.5 144.5q0 135 -102 211q-49 35 -112.5 58.5t-133.5 46.5q-72 23 -142.5 49t-125.5 67q-131 98 -131 271q0 76 27.5 142.5 t80.5 119.5q117 113 305 113q111 0 196 -36t161 -114l14 -16l-16 -23v-2q-12 -16 -33 -16q-12 0 -22.5 7t-24.5 19q-14 14 -35.5 31.5t-54.5 34.5q-78 41 -185 41q-156 0 -251 -92q-86 -86 -86 -209q0 -135 104 -209q49 -35 112.5 -59.5t133.5 -47.5q72 -23 141.5 -50 t126.5 -68q129 -92 129 -265q0 -94 -31 -174q-16 -41 -39.5 -76.5t-52.5 -66.5q-129 -129 -344 -129q-143 0 -248 51q-88 45 -172 144z" />
<glyph unicode="T" d="M16 1389v75h1160v-75h-539v-1412h-78v1412h-543z" />
<glyph unicode="U" horiz-adv-x="1507" d="M209 530v928h78v-926q0 -104 32.5 -196t92.5 -160q129 -147 342 -147t342 145q61 70 93 161t32 195v928h77v-928q0 -119 -36.5 -223t-108.5 -182q-72 -82 -172 -125q-106 -47 -227 -47t-226 47q-102 43 -172 125q-72 78 -109.5 182.5t-37.5 222.5z" />
<glyph unicode="V" horiz-adv-x="1257" d="M-25 1456h41h19q27 0 37 -29l553 -1327l553 1327q6 29 39 29h16h39l-621 -1487h-16h-21h-18z" />
<glyph unicode="W" horiz-adv-x="1964" d="M-16 1458h36h19q31 0 37 -28l409 -1309l455 1309q10 28 37 28h2h6q27 0 37 -28l455 -1309l409 1309q10 28 39 28h2h17h36l-12 -35l-461 -1452h-59l-467 1350l-467 -1350h-59l-461 1452z" />
<glyph unicode="X" horiz-adv-x="1150" d="M-29 -33l31 43l526 717l-501 686l-31 41h51h23q18 0 26 -9t13 -13v-2h2l467 -644l466 641q10 18 22.5 22.5t18.5 4.5h23h53l-31 -41l-501 -682l526 -721l31 -43h-53h-23q-16 0 -25.5 10.5t-13.5 14.5v2l-491 676l-494 -676q-4 -8 -14.5 -17.5t-26.5 -9.5h-22h-52z" />
<glyph unicode="Y" horiz-adv-x="1175" d="M-8 1456h49h20q23 0 37 -20q121 -188 205 -317.5t138.5 -213.5t83 -130t43 -67.5t17.5 -25.5l3 -4l3 5t17.5 26.5t43 66.5t82.5 129t138 213t205 318q14 20 37 20h21h49l-27 -41l-530 -817v-602v-27h-27h-25h-26v27v602l-531 817z" />
<glyph unicode="Z" horiz-adv-x="1312" d="M115 -4q0 10 2 17t6 14l2 2l969 1347h-963v76h1077v-27v-4q0 -20 -14 -37l-967 -1343h981l-6 -76h-1061h-26v27v4z" />
<glyph unicode="[" horiz-adv-x="614" d="M188 -248v1786v27h27h281h26v-27v-6q0 -39 -41 -39h-217v-1696h217q41 0 41 -39v-6v-26h-26h-281h-27v26z" />
<glyph unicode="\" horiz-adv-x="700" d="M-41 1495h41h10q29 0 43 -27l2 -2l656 -1542l14 -37h-39h-8q-23 0 -33 9.5t-14 19.5l-656 1542z" />
<glyph unicode="]" horiz-adv-x="614" d="M100 -242q0 39 41 39h217v1696h-217q-41 0 -41 39v6v27h27h281h26v-27v-1786v-26h-26h-281h-27v26v6z" />
<glyph unicode="^" d="M203 815l22 41l334 602l8 12h15h12h16l8 -12l334 -602l23 -41h-47h-15q-31 0 -43 31l-282 508l-281 -510l-2 -2l-2 -2q-4 -6 -13 -15.5t-28 -9.5h-14h-45z" />
<glyph unicode="_" horiz-adv-x="806" d="M-27 -221h861v-76h-861v76z" />
<glyph unicode="`" horiz-adv-x="573" d="M70 1479h82q23 0 36 -6.5t29 -28.5l197 -283h-66q-18 0 -37 19z" />
<glyph unicode="a" horiz-adv-x="960" d="M94 238q0 74 45 137q41 57 131 98q41 20 94.5 36.5t116.5 27.5q59 10 127 16t146 8v105q0 37 -3 70.5t-14 62.5q-16 61 -45 96q-66 80 -184 80q-92 0 -176 -45q-35 -18 -58.5 -39t-40.5 -37q-14 -14 -24 -21.5t-23 -7.5q-10 0 -17 5.5t-11 9.5l-23 22l19 19 q41 43 79.5 72.5t79.5 50.5q88 45 195 45q162 -1 246 -107q41 -47 59 -116.5t18 -159.5v-664v-27h-30q-41 0 -41 41l-4 103q-37 -35 -71 -60.5t-69 -44.5q-109 -55 -239 -55q-113 0 -189 64q-94 76 -94 215zM172 238q0 -57 18.5 -96.5t48 -64t66.5 -34.5t72 -10 q121 0 221 57q45 25 83 58.5t73 68.5v270q-147 -6 -258 -24.5t-183 -50.5q-141 -66 -141 -174z" />
<glyph unicode="b" horiz-adv-x="1095" d="M170 -27v1528h78v-624q66 74 153.5 122t192.5 48q208 -1 317 -136q66 -82 88.5 -189.5t22.5 -213.5q0 -102 -25.5 -201.5t-91.5 -185.5q-129 -160 -350 -160q-88 0 -167 31t-144 98v-76q0 -12 -6 -24q-4 -4 -11.5 -10.5t-21.5 -6.5h-35zM248 207q106 -170 307 -172 q84 0 161 31.5t130 101.5q98 129 98 340q0 236 -90 354q-47 59 -115.5 85t-144.5 26q-100 0 -189.5 -56.5t-156.5 -160.5v-549z" />
<glyph unicode="c" horiz-adv-x="911" d="M78 502q0 121 30.5 221t90.5 172q129 152 344 152q80 0 156.5 -27t144.5 -86l22 -19l-26 -24q-12 -12 -27 -12q-14 0 -37 16q-25 18 -79 48t-154 30q-80 0 -156 -30t-129 -95q-51 -61 -76.5 -149.5t-25.5 -196.5q0 -221 97 -344t273 -123q74 0 141.5 22.5t125.5 73.5 q23 23 38 23q10 0 16.5 -4.5t10.5 -8.5l21 -20l-13 -19q-25 -37 -64.5 -63.5t-85.5 -44t-95.5 -25.5t-94.5 -8q-211 0 -327 145q-68 80 -94.5 183.5t-26.5 212.5z" />
<glyph unicode="d" horiz-adv-x="1095" d="M76 496q0 109 28 211q31 102 89 174q126 161 347 161h3q117 0 207 -47q59 -33 100 -80v555v27h27h24h27v-27v-1474v-27h-27h-6q-41 0 -41 43l-2 115q-55 -63 -125 -107q-102 -63 -223 -63q-213 0 -320 135q-55 72 -82 170q-12 49 -19 108.5t-7 125.5zM154 496 q0 -240 90 -355q43 -55 108 -84q59 -26 146 -26h6q100 0 189 55t157 160v549q-59 92 -132 133t-175 41q-96 0 -172 -37q-70 -33 -119 -98q-98 -127 -98 -338z" />
<glyph unicode="e" horiz-adv-x="1024" d="M70 520q0 236 123 377q125 147 342 147q86 0 157 -30q76 -31 129 -88q115 -127 115 -340q0 -16 -11.5 -26.5t-27.5 -10.5h-750v-17v-12q0 -115 29 -213q29 -90 80 -151q53 -59 123 -90q68 -33 160 -33q63 0 112 11t86 27.5t61.5 33t39.5 28.5q12 10 19 14.5t17 4.5 q18 0 27 -13l4 -4l19 -16l-17 -19q-43 -53 -143 -94q-37 -16 -95.5 -31.5t-129.5 -15.5q-217 0 -344 152q-61 74 -93 176q-16 53 -24 111.5t-8 121.5zM154 621h706q-6 160 -94 253q-41 47 -102 72q-59 25 -129 25q-86 0 -152 -27q-66 -25 -115 -76q-90 -90 -114 -247z" />
<glyph unicode="f" horiz-adv-x="632" d="M4 946v35h180v127q0 176 84 270q78 90 217 90q14 0 53.5 -4t73.5 -20l19 -10l-8 -29q-8 -27 -33 -27q-10 0 -25 6q-12 4 -31.5 7.5t-48.5 3.5q-102 0 -159 -62q-63 -72 -64 -225v-127h359v-74h-359v-940h-78v942l-141 2q-20 0 -29.5 11.5t-9.5 23.5z" />
<glyph unicode="g" horiz-adv-x="1019" d="M133 53q43 47 105 76q-10 6 -19.5 13.5t-19.5 15.5q-41 41 -41 108q0 41 26.5 85t71.5 79q-59 47 -91 116.5t-32 155.5q0 74 25 140q14 31 32.5 59.5t42.5 50.5q102 96 267 97q131 0 227 -66h236h26v-27v-4q0 -16 -13 -28.5t-30 -12.5l-143 -4q63 -86 63 -205 q0 -72 -26 -141q-12 -33 -32 -60.5t-42 -49.5q-104 -94 -266 -95q-49 0 -93.5 8.5t-82.5 26.5q-41 -27 -66 -61.5t-25 -63.5q0 -37 21 -57q16 -18 63 -33q45 -14 102.5 -17t123.5 -7q76 -4 149.5 -9.5t134.5 -27.5q35 -12 60.5 -28.5t44.5 -39.5q43 -49 43 -125 q0 -66 -35 -129q-37 -61 -96 -104q-63 -47 -146 -72q-43 -14 -90 -20.5t-96 -6.5q-205 0 -326 84q-118 81 -118 211q0 96 65 168zM145 -113q0 -45 23 -84q25 -41 72 -71q23 -16 51 -28.5t63 -20.5q70 -18 158 -19q76 0 147.5 19.5t124.5 54.5q57 39 84 82q31 49 31 102 q0 92 -104 125q-53 18 -121 23.5t-137 9.5q-49 2 -99.5 5t-95.5 11q-47 -18 -83 -38.5t-60 -45.5q-54 -53 -54 -125zM211 702q0 -125 76 -196q76 -76 213 -76q135 0 213 74q76 76 75 198q0 123 -77 197q-80 76 -211 76q-133 0 -213 -76q-76 -76 -76 -197z" />
<glyph unicode="h" horiz-adv-x="1081" d="M154 -27v1528h77v-629q29 33 63 61t68 48q51 31 109.5 48.5t124.5 17.5q74 0 144.5 -25t123.5 -84q90 -106 90 -295v-670h-77v670q0 160 -70 246q-72 84 -211 84q-53 0 -104.5 -14.5t-98.5 -45.5q-90 -53 -162 -157v-783h-77z" />
<glyph unicode="i" horiz-adv-x="454" d="M190 -14v1056h78v-1056h-78zM190 1249v211h78v-211h-78z" />
<glyph unicode="j" horiz-adv-x="450" d="M-80 -360l14 30v2h3q8 12 16 16.5t14 4.5q14 0 27 -6q8 -4 19.5 -8.5t27.5 -4.5q72 0 108.5 43t40.5 117v1206h78v-1206q0 -104 -63.5 -168.5t-163.5 -64.5q-31 0 -57.5 8t-63.5 31zM190 1249v211h78v-211h-78z" />
<glyph unicode="k" horiz-adv-x="950" d="M170 -27v1528h78v-926h20h2h2q4 0 10.5 1.5t16.5 9.5v2l477 418q10 10 21.5 17t33.5 7h89l-553 -485q4 -2 12 -10l577 -562h-84q-14 0 -24 3.5t-23 15.5l-503 489v2q-14 12 -23.5 16.5t-36.5 4.5h-14v-531h-78z" />
<glyph unicode="l" horiz-adv-x="454" d="M188 -20v1527h78v-1527h-78z" />
<glyph unicode="m" horiz-adv-x="1585" d="M154 -27v1057h32q41 0 41 -43l2 -104q45 59 103 98q90 66 196 66q133 0 209 -82q45 -47 70 -123q4 8 7 15t7 15q31 57 80 99q92 76 221 76q158 0 246 -107q45 -51 68 -127q22 -75 22 -162v-8v-670h-78v670q0 84 -18 145q-16 63 -49 103q-68 82 -191 82q-119 0 -194 -80 q-88 -92 -88 -250v-670h-78v670q0 41 -3 77t-14 66q-16 63 -45 105q-61 82 -174 82q-88 0 -161 -55q-74 -55 -134 -158v-787h-77z" />
<glyph unicode="n" horiz-adv-x="1081" d="M154 -25v1031v26h32q18 0 29.5 -12t11.5 -31l2 -119q61 70 133 113q113 66 234 66q86 0 156 -29q69 -29 114 -80q88 -102 88 -295v-670h-77v670q0 164 -70 246q-68 84 -211 84q-106 0 -203 -60q-92 -57 -162 -159v-781h-77z" />
<glyph unicode="o" horiz-adv-x="1081" d="M76 504q0 248 119 391q63 78 147 113q88 41 199 41q106 0 198 -41q85 -35 148 -113q119 -143 119 -391q0 -121 -31 -219q-31 -102 -88 -172q-61 -74 -148 -111q-86 -39 -198 -39q-115 0 -199 39q-86 37 -147 111q-59 72 -91 172q-28 99 -28 211v8zM154 504 q0 -109 24 -195q25 -86 74 -147t119 -92q72 -33 170 -33t170 33q68 31 118 92q45 61 74 147q25 86 25 195q0 215 -99 342q-51 63 -120 94q-76 35 -168 35q-94 0 -170 -35q-68 -29 -119 -94q-98 -123 -98 -342z" />
<glyph unicode="p" horiz-adv-x="1067" d="M156 -367v1373v26h26h6q41 0 41 -43l2 -110q57 66 125 106q102 63 224 64q211 0 319 -136q53 -66 82 -170q14 -49 20.5 -108.5t6.5 -124.5q0 -109 -29 -211q-31 -102 -88 -174q-127 -162 -350 -162q-190 0 -308 127v-457v-26h-26h-25h-26v26zM233 209q57 -90 134 -131 q37 -20 78.5 -30.5t95.5 -10.5q98 0 172 37q72 35 121 98q96 125 96 338q0 240 -90 354q-45 57 -107 84q-61 27 -153 27q-100 0 -189.5 -55.5t-157.5 -161.5v-549z" />
<glyph unicode="q" horiz-adv-x="1095" d="M70 498q0 109 28 211q31 102 88 174q126 161 348 161h3q117 0 206 -47q55 -31 103 -84l2 72q0 18 11 30.5t30 12.5h6h27v-27v-1372v-26h-27h-25h-26v26v498q-29 -31 -58.5 -57.5t-64.5 -46.5q-102 -63 -223 -64q-213 0 -320 135q-55 72 -82 170q-12 49 -19 108.5 t-7 125.5zM147 498q0 -240 91 -355q43 -55 108 -84q59 -26 146 -26h6q100 0 189 55t157 160v551q-55 90 -131 129q-74 43 -176 43q-96 0 -172 -37q-70 -33 -119 -98q-98 -127 -99 -338z" />
<glyph unicode="r" horiz-adv-x="802" d="M154 -31v1057h32q41 0 41 -43l2 -141q0 4 4 8q33 63 80 104q94 88 240 88q98 0 182 -41l25 -12l-17 -35h-2v-2q-10 -18 -30 -18q-8 0 -14.5 2t-16.5 6q-16 8 -47 16.5t-80 8.5q-119 0 -199 -80q-78 -78 -123 -236v-682h-77z" />
<glyph unicode="s" horiz-adv-x="874" d="M78 104l20 21l6 6q10 14 31 14q10 0 20.5 -7t22.5 -17q14 -12 34.5 -26.5t50.5 -29t69 -23.5t90 -9q131 0 207 71q35 35 53 78q18 45 18 99q0 47 -22 81q-18 31 -57 58q-39 25 -90.5 42t-104.5 34q-57 16 -112.5 34.5t-100.5 47.5q-104 70 -104 190q0 57 24 106 q12 27 29.5 48.5t40.5 42.5q47 41 108.5 62.5t132.5 21.5q90 0 158 -25q68 -23 133 -80l19 -16l-13 -19l-4 -6l-2 -2q-8 -10 -16 -13t-14 -3q-10 0 -19.5 5t-21.5 13q-25 18 -75 45t-145 27q-115 0 -190 -66q-31 -25 -51 -65q-18 -37 -19 -76q0 -43 19 -76q16 -27 55 -51 q39 -23 87 -40t101 -34q59 -16 115.5 -36.5t104.5 -49.5q27 -18 46 -37.5t33 -42.5q31 -53 31 -118q0 -68 -24.5 -127.5t-69.5 -102.5q-100 -94 -260 -94q-111 0 -186 35q-66 27 -138 92z" />
<glyph unicode="t" horiz-adv-x="700" d="M33 956v27h26l156 4l6 377q0 18 10.5 29.5t26.5 11.5h33v-27v-391h342v-74h-342v-723q0 -84 41 -124q35 -35 96 -35q55 0 90 22.5t57 40.5q10 10 19.5 15.5t19.5 5.5q18 0 27 -13l21 -20l-13 -19q-39 -49 -96 -75q-59 -31 -125 -31q-102 0 -158 57q-57 61 -57 176v723 h-139q-23 0 -32 12.5t-9 30.5z" />
<glyph unicode="u" horiz-adv-x="1081" d="M131 354v670h78v-670q0 -160 70 -245q72 -84 210 -84q109 0 203 59q90 53 162 160v780h78v-1030v-27h-33q-18 0 -29.5 12.5t-11.5 30.5l-2 119q-61 -70 -133 -113q-107 -65 -230 -65h-4q-86 0 -155 29q-66 26 -113 79q-90 106 -90 295z" />
<glyph unicode="v" horiz-adv-x="952" d="M-10 1024h55q31 0 43 -31l389 -893l387 893l2 2v2q10 16 21.5 21.5t19.5 5.5h56l-459 -1057h-53z" />
<glyph unicode="w" horiz-adv-x="1458" d="M-2 1032h51q27 0 43 -31v-2l295 -884l307 895q6 20 19.5 24t17.5 4h6q4 0 16.5 -4t18.5 -24l305 -895l295 884l2 2v3q10 18 22.5 23t20.5 5h51l-362 -1057h-29q-29 0 -39 29l-305 887l-309 -887q-6 -20 -18.5 -24.5t-16.5 -4.5h-31z" />
<glyph unicode="x" horiz-adv-x="866" d="M-8 -27l393 537l-379 520h74q18 0 27.5 -10t11.5 -14h2l313 -435l316 433q10 18 22 22t19 4h75l-381 -516l365 -498l31 -43h-76q-16 0 -25.5 10.5t-13.5 14.5v2l-330 453l-330 -453q-4 -8 -14 -17.5t-26 -9.5h-74z" />
<glyph unicode="y" horiz-adv-x="952" d="M-10 1022h55q31 0 45 -31l387 -887l389 889q10 18 22.5 23.5t20.5 5.5h56l-609 -1387q-16 -38 -47 -38h-2h-55l184 411z" />
<glyph unicode="z" horiz-adv-x="909" d="M53 6q0 10 2 15.5t6 9.5l676 925h-649v74h762v-37q0 -10 -2 -14l-4 -8l-4 -4t-22.5 -31t-59.5 -82t-116 -157.5t-190.5 -261.5t-283.5 -388h651v-74h-766v33z" />
<glyph unicode="{" horiz-adv-x="614" d="M66 602v78q45 2 73.5 30.5t45 74.5t22.5 105.5t6 121.5v325q0 139 47 190.5t133 51.5h103v-68h-99q-63 0 -84.5 -47t-21.5 -164v-321q0 -102 -18.5 -164.5t-43 -97.5t-48 -49.5t-34.5 -20.5q10 -10 34 -26.5t48.5 -52.5t43 -98t18.5 -165v-321q0 -117 21.5 -164t84.5 -47 h99v-68h-103q-86 0 -133 51t-47 191v323q0 61 -6 121t-22.5 106t-45 74.5t-73.5 30.5z" />
<glyph unicode="|" horiz-adv-x="614" d="M274 -393v1960h74v-1960h-74z" />
<glyph unicode="}" horiz-adv-x="614" d="M106 -227h99q63 0 84.5 47t21.5 164v321q0 102 18.5 164.5t43 98.5t48 52.5t34.5 26.5q-10 6 -34 20.5t-48.5 49.5t-43 97.5t-18.5 164.5v321q0 117 -21.5 164t-84.5 47h-99v68h103q86 0 133 -51t47 -191v-325q0 -61 6 -121t22.5 -106t45.5 -74.5t74 -30.5v-78 q-45 -2 -74 -30.5t-45.5 -74.5t-22.5 -105.5t-6 -121.5v-323q0 -139 -47 -190.5t-133 -51.5h-103v68z" />
<glyph unicode="~" d="M139 436v27q0 51 15.5 95t44.5 79q66 78 176 78q57 0 117.5 -23.5t119.5 -52.5q55 -27 108.5 -49.5t96.5 -22.5q72 0 117 51q41 49 45 130l2 24h25h20h27v-27q0 -49 -15.5 -94t-46.5 -80q-31 -37 -73 -55q-49 -23 -101 -22q-59 0 -119.5 25.5t-119.5 53.5 q-55 27 -106.5 47.5t-96.5 20.5q-72 0 -117 -51q-45 -49 -45 -127v-27h-27h-20h-27z" />
<glyph unicode="&#xa1;" horiz-adv-x="624" d="M268 864v211h78v-211h-78zM270 201v84t1 82t3 96t5 125h67q4 -117 5 -208t1 -179v-613h-82v613z" />
<glyph unicode="&#xa2;" d="M154 504q0 248 135 395q63 70 151 107.5t197 42.5l6 208q2 23 13.5 33t25.5 10h39l-2 -26l-6 -227q39 -4 75.5 -12.5t71.5 -20.5q74 -27 131 -76l23 -18l-27 -27q-12 -12 -29 -12q-12 0 -34 16q-25 16 -75 43t-138 33l-33 -934q117 8 179.5 43t88.5 55q18 18 33 19 q16 0 29 -13l18 -20l-12 -19q-39 -55 -135 -94q-33 -16 -85.5 -29.5t-117.5 -17.5l-8 -219q0 -23 -11.5 -33t-27.5 -10h-37l8 264q-199 16 -317 148q-63 74 -95 170q-35 100 -34 221zM231 504q0 -111 31 -199q27 -82 80 -143q55 -57 125 -90q31 -12 65.5 -20.5t71.5 -12.5 l31 936q-41 -4 -80 -11.5t-74 -21.5q-41 -16 -73.5 -39.5t-61.5 -52.5q-55 -63 -85 -150.5t-30 -195.5z" />
<glyph unicode="&#xa3;" d="M61 639v35q0 18 13.5 28.5t27.5 10.5h170v303q0 102 28 186t81 144q53 61 135 96t182 35q82 0 142 -21q31 -8 57.5 -21.5t50.5 -31.5q82 -59 127 -170l12 -29l-51 -10q-10 0 -18 6t-14 12l-3 2q-23 39 -45 72t-55 60q-76 57 -203 57q-82 0 -149 -29q-33 -14 -59.5 -33.5 t-49.5 -44.5q-43 -51 -66.5 -122.5t-23.5 -157.5v-303h524v-37q0 -16 -11 -26.5t-27 -10.5h-486v-340q0 -109 -51 -186q-20 -31 -53 -62h909v-37q0 -16 -12.5 -27.5t-28.5 -11.5h-1026v66l16 8q78 33 119 86q49 63 49 164v340h-211z" />
<glyph unicode="&#xa4;" d="M147 291l164 164q-35 45 -57 94q-27 70 -27 135q0 131 84 234l-164 159l52 53l163 -161q98 82 230 82q66 0 126 -20.5t107 -61.5l160 161l53 -53l-161 -159q41 -47 61 -107.5t20 -126.5q0 -131 -81 -229l161 -164l-53 -51l-160 163q-102 -84 -233 -84q-66 0 -135 27 q-49 23 -95 57l-163 -163zM301 684q0 -59 25 -111q23 -53 63 -92q39 -41 92 -63q51 -25 111 -25q121 0 209 88q39 39 61 92q12 27 17.5 54.5t5.5 56.5q0 61 -22.5 114.5t-62.5 93.5t-93.5 62.5t-114.5 22.5q-29 0 -56.5 -5t-54.5 -18q-53 -23 -92 -61q-88 -88 -88 -209z" />
<glyph unicode="&#xa5;" d="M78 1462h45h20q29 0 39 -22l406 -750l407 752l2 2q12 18 35 18h21h45l-445 -811h371v-73h-397v-78h397v-74h-397v-451h-78v451h-397v74h397v78h-397v73h372z" />
<glyph unicode="&#xa6;" horiz-adv-x="614" d="M270 -395v833h74v-833h-74zM270 731v834h74v-834h-74z" />
<glyph unicode="&#xa7;" horiz-adv-x="1021" d="M143 750q0 90 54 155q23 29 54.5 52.5t74.5 43.5q-39 31 -64 64q-43 57 -43 135q0 55 25 109q25 49 71 90q47 41 108.5 61.5t131.5 20.5q96 0 163.5 -24.5t127.5 -82.5l14 -14l-8 -17l-2 -4q-12 -23 -35 -22q-10 0 -19.5 5t-19.5 15q-10 8 -28.5 20.5t-45.5 22.5 q-61 27 -147 27q-115 0 -188 -64q-35 -29 -54 -65q-18 -37 -18 -78q0 -78 78 -137q37 -29 86 -52.5t104 -47.5q59 -27 119.5 -55.5t108.5 -67.5q113 -92 112 -226q0 -92 -51 -161q-37 -53 -92 -86q39 -33 63 -70q39 -59 39 -135q0 -66 -23.5 -125.5t-70.5 -102.5 q-96 -96 -260 -96q-104 0 -186 35q-66 29 -138 94l-20 19l20 20l6 6l5 4h4q4 8 22 9q16 0 45 -23q14 -12 35 -27.5t49.5 -29t67.5 -23.5t90 -10q131 0 209 74q70 66 69 174q0 90 -88 157q-43 33 -99 58.5t-116 50.5q-59 27 -119.5 55.5t-107.5 63.5q-113 86 -113 205z M219 750q0 -78 82 -140q41 -31 92 -55.5t111 -48.5q47 -23 96 -44.5t92 -49.5q135 69 135 200q0 100 -88 170q-43 35 -98 60.5t-113 50.5q-35 16 -67.5 30.5t-63.5 30.5q-96 -41 -137 -90q-41 -47 -41 -114z" />
<glyph unicode="&#xa8;" horiz-adv-x="573" d="M80 1214v211h78v-211h-78zM416 1214v211h78v-211h-78z" />
<glyph unicode="&#xa9;" horiz-adv-x="1667" d="M74 719q0 156 61 295q55 135 162 241q109 109 240 162q72 31 145.5 45.5t148.5 14.5q78 0 152 -14.5t143 -45.5q135 -55 242 -162q107 -106 162 -241q31 -70 45 -143.5t14 -151.5q0 -76 -14 -149.5t-45 -145.5q-53 -131 -162 -240q-106 -106 -242 -161q-139 -61 -295 -62 q-154 0 -294 62q-131 53 -240 161q-53 53 -93 112.5t-69 127.5q-61 141 -61 295zM152 719q0 -139 55 -264q51 -123 145 -215q92 -94 215 -146q125 -55 264 -55q141 0 265.5 53t217.5 145.5t146 216.5t53 265q0 70 -12 136.5t-41 129.5q-51 119 -145 217q-98 94 -217 146 q-63 29 -130 41t-137 12q-141 0 -265 -53.5t-216 -146.5t-145 -217t-53 -265zM371 719q0 106 37 196q33 86 100 154q63 63 154 98q45 18 93 26.5t101 8.5q106 0 184 -26q35 -12 69 -33t73 -49l18 -17l-14 -20l-4 -6v-2l-2 -2q-4 -2 -10.5 -7.5t-18.5 -5.5q-14 0 -41 21 q-12 10 -32.5 22.5t-49.5 24.5q-72 27 -172 26q-90 0 -165 -27.5t-128 -80.5q-115 -111 -114 -301q0 -186 112 -299q51 -51 125 -80t156 -29q55 0 98 7.5t80 21.5q59 20 125 76q6 6 13 7t9 1q10 0 18.5 -4t12.5 -8l4 -4l21 -21l-23 -18q-70 -61 -147 -93q-92 -39 -211 -38 q-98 0 -187 34q-88 35 -149 97q-66 63 -98 153q-37 88 -37 197z" />
<glyph unicode="&#xaa;" horiz-adv-x="675" d="M98 991q0 51 31 88q27 37 82 66q104 47 295 53v39q0 84 -34 122t-107 38q-61 0 -97.5 -21.5t-56.5 -38.5q-10 -10 -19.5 -16t-19.5 -6q-8 0 -15 4t-12 8l-2 2v2l-4 6l-12 19l14 14q49 53 103.5 76.5t120.5 23.5q110 0 165 -61q51 -59 52 -172v-381v-27h-27h-8 q-10 0 -27 13q-4 4 -5 8t-3 8v4l-2 4v35q-47 -37 -99.5 -59.5t-123.5 -22.5q-70 0 -125 39q-63 51 -64 133zM174 993q0 -47 35 -75q35 -25 80 -25q76 0 127 30.5t90 69.5v131q-168 -8 -254 -43q-41 -16 -59 -41q-18 -18 -19 -47z" />
<glyph unicode="&#xab;" horiz-adv-x="847" d="M152 516v19l258 409l28 -18q18 -12 19 -37q0 -4 -4 -17q-2 -6 -4 -10l-209 -330l-7 -6l7 -8l211 -334q2 -4 4 -9t2 -15q0 -23 -19 -35l-28 -19zM377 516v19l258 409l29 -18q18 -12 18 -37q0 -4 -4 -17q-2 -6 -4 -10l-209 -330l-6 -6l6 -8l211 -334q2 -4 4 -9t2 -15 q0 -23 -18 -35l-29 -19z" />
<glyph unicode="&#xac;" d="M158 647v74h874v-381h-76v27v280h-798z" />
<glyph unicode="&#xad;" horiz-adv-x="655" d="M76 565v74h504v-74h-504z" />
<glyph unicode="&#xae;" horiz-adv-x="1667" d="M76 717q0 156 61 295q55 135 162 241q109 109 240 162q72 31 145.5 45.5t149.5 14.5q78 0 151.5 -14.5t142.5 -45.5q135 -55 242 -162q107 -106 162 -241q31 -70 45 -143.5t14 -151.5q0 -76 -14 -149.5t-45 -145.5q-53 -131 -162 -240q-106 -106 -242 -162 q-139 -61 -294 -61q-154 0 -295 61q-131 53 -240 162q-53 53 -93 112.5t-69 127.5q-61 141 -61 295zM154 717q0 -139 55 -264q51 -123 145 -215q92 -94 215 -146q126 -55 265 -55q141 0 265 53t217 145.5t146.5 216t53.5 265.5q0 70 -12.5 136.5t-41.5 129.5 q-51 119 -145 217q-98 94 -217 146q-63 29 -130 41t-136 12q-141 0 -265.5 -53.5t-216.5 -146.5t-145 -217t-53 -265zM561 240v954h244q74 0 133 -12q59 -16 100 -47q86 -61 86 -193q0 -121 -88 -190q-63 -53 -159 -70l368 -442h-78q-18 0 -34 16v2h-3l-337 404v2 q-4 4 -5.5 5t-3.5 3q-6 2 -32 2h-113v-434h-78zM639 748h154q123 0 192 53q61 49 62 141q0 53 -15 84q-12 31 -41 53q-55 41 -186 41h-166v-372z" />
<glyph unicode="&#xaf;" horiz-adv-x="573" d="M-4 1274v74h586v-74h-586z" />
<glyph unicode="&#xb0;" horiz-adv-x="796" d="M86 1165q0 131 92 219q45 43 102.5 67t118.5 24q66 0 123.5 -24t99.5 -66t66.5 -98t24.5 -122q0 -59 -23 -121q-25 -55 -67 -98q-43 -45 -100.5 -68.5t-123.5 -23.5q-63 0 -120 25q-59 27 -101 67q-45 45 -65 98q-27 63 -27 121zM164 1165q0 -47 18.5 -89t50.5 -77 q70 -69 166 -69q102 0 168 69q68 68 68 166q0 100 -68 168t-168 68q-94 0 -166 -68q-70 -70 -69 -168z" />
<glyph unicode="&#xb1;" d="M98 55v74h998v-74h-998zM98 649v74h461v440h74v-440h463v-74h-463v-442h-74v442h-461z" />
<glyph unicode="&#xb2;" horiz-adv-x="675" d="M82 891v35q0 16 14 30l254 258q31 33 57.5 62t47.5 57q39 59 39 121q0 70 -45 109q-41 35 -107 34q-63 0 -105 -36.5t-59 -102.5q-12 -31 -41 -31l-41 9l4 24q12 98 80 156q63 55 162 55q94 0 156 -51q72 -59 71 -166q0 -80 -47 -149q-20 -31 -46.5 -61t-55.5 -60 l-17 -17l-198 -202h348q35 0 35 -35v-39h-506z" />
<glyph unicode="&#xb3;" horiz-adv-x="675" d="M86 1106l27 12q6 4 12 5t10 1q20 0 31 -18q4 -6 8 -19q4 -14 12.5 -35.5t28.5 -43.5q47 -51 133 -52q53 0 85 17.5t48 34.5q43 47 43 102q0 66 -41 102q-51 41 -153 41h-27v68l25 2q86 2 135 43q43 37 43 98q0 68 -43 103q-43 33 -105 32q-66 0 -110 -38 q-43 -37 -55 -103q-4 -12 -9 -16q-10 -12 -26 -12l-45 2l4 30q12 98 80 156q63 55 161 55q94 0 154 -49q70 -57 70 -158q0 -78 -54 -135q-20 -20 -43 -35q35 -14 66 -45q51 -57 51 -139q0 -94 -72 -162q-35 -33 -82 -49t-100 -16q-68 0 -115 20q-43 18 -75 51 q-29 31 -43.5 69t-28.5 81z" />
<glyph unicode="&#xb4;" horiz-adv-x="573" d="M170 1161l197 283q16 23 29.5 29t35.5 6h82l-242 -299q-18 -18 -36 -19h-66z" />
<glyph unicode="&#xb5;" horiz-adv-x="1081" d="M127 -356v1386h78v-686q0 -74 18 -131q18 -59 51 -98q74 -84 211 -84q106 0 203 59q92 57 162 158v782h78v-1057h-33q-6 0 -20.5 7.5t-24.5 33.5v117q-57 -63 -131 -108q-53 -31 -113 -48q-59 -18 -121 -18q-139 0 -225 70q-16 14 -30.5 28.5t-24.5 32.5v-483h-39 q-39 0 -39 39z" />
<glyph unicode="&#xb6;" horiz-adv-x="1228" d="M27 1098q0 168 129 266q31 23 68.5 40t80.5 30q43 12 92 17t103 5h665h27v-26v-23v-27h-27h-209v-1568v-27h-26h-25h-26v27v1568h-328v-1568v-27h-27h-24h-27v27v909q-195 6 -317 104q-61 53 -97 121q-33 68 -32 152z" />
<glyph unicode="&#xb7;" horiz-adv-x="532" d="M225 498v211h78v-211h-78z" />
<glyph unicode="&#xb8;" horiz-adv-x="573" d="M94 -313l23 22q4 4 11 9.5t17 5.5t15.5 -4.5t13.5 -8.5q14 -8 40 -20.5t71 -12.5q51 0 82 21q23 16 22 55q0 43 -40 59.5t-132 30.5l-33 4l58 179h73l-36 -119q77 -12 120 -37q66 -41 66 -115t-55 -112q-49 -37 -131 -37q-47 0 -92.5 16.5t-73.5 44.5z" />
<glyph unicode="&#xb9;" horiz-adv-x="675" d="M133 1464l232 205h53v-704h166v-72h-416v72h172v585l-131 -118q-8 -8 -14.5 -9.5t-10.5 -1.5q-10 0 -17 6.5t-11 10.5z" />
<glyph unicode="&#xba;" horiz-adv-x="751" d="M78 1147q0 150 78 237q80 90 223 91q70 0 127 -23q59 -27 94 -68q36 -38 59 -104q18 -59 19 -133q0 -147 -78 -236q-78 -90 -221 -90t-223 90q-78 88 -78 236zM152 1147q0 -119 57 -189q57 -67 170 -67q111 0 170 67q14 16 23.5 37t17.5 43q14 45 14 109q0 66 -14 108 q-16 51 -41 82q-59 68 -170 68q-113 0 -170 -70q-57 -68 -57 -188z" />
<glyph unicode="&#xbb;" horiz-adv-x="847" d="M168 160q0 10 2 15t4 9l211 334l6 8l-6 6l-209 330q-2 4 -4 10q-4 12 -4 17q0 25 18 37l29 18l258 -409v-19l-258 -410l-29 19q-18 12 -18 35zM393 160q0 10 2 15t4 9l211 334l6 8l-6 6l-209 330q-2 4 -4 10q-4 12 -4 17q0 25 19 37l28 18l258 -409v-19l-258 -410l-28 19 q-18 12 -19 35z" />
<glyph unicode="&#xbc;" horiz-adv-x="1458" d="M133 1260l232 204h53v-704h166v-72h-416v72h172v586l-131 -119q-8 -8 -14.5 -9t-10.5 -1q-10 0 -17 6t-11 10zM322 -27l823 1463q14 25 45 24h57l-825 -1462l-2 -2q-18 -23 -43 -23h-55zM862 229l6 21l375 495h60v-483h145v-37q0 -12 -9 -23.5t-28 -11.5h-108v-217h-76 v217h-324q-25 0 -37 23v2l-2 4zM969 262h258v342z" />
<glyph unicode="&#xbd;" horiz-adv-x="1458" d="M133 1260l232 204h53v-704h166v-72h-416v72h172v586l-131 -119q-8 -8 -14.5 -9t-10.5 -1q-10 0 -17 6t-11 10zM264 -27l823 1463q14 25 46 24h57l-825 -1462l-3 -2q-18 -23 -43 -23h-55zM895 4q0 16 14 31l254 258q31 33 57.5 61.5t47.5 57.5q39 59 39 120q0 70 -45 109 q-41 35 -107 35q-63 0 -105 -37t-59 -102q-12 -31 -41 -31l-41 8l4 25q12 98 80 155q63 55 162 56q94 0 156 -52q72 -59 71 -166q0 -80 -47 -149q-20 -31 -46.5 -60.5t-55.5 -60.5l-16 -16l-199 -203h348q35 0 35 -35v-39h-506v35z" />
<glyph unicode="&#xbe;" horiz-adv-x="1464" d="M66 897l26 12q6 4 12.5 5t10.5 1q20 0 30 -18q4 -6 9 -18q4 -14 12 -36t29 -44q47 -51 133 -51q53 0 84.5 17t48.5 34q43 47 43 102q0 66 -41 103q-51 41 -154 40h-26v68l24 2q86 2 135 43q43 37 43 98q0 68 -43 103q-43 33 -104 33q-66 0 -111 -39q-43 -37 -55 -103 q-4 -12 -8 -16q-10 -12 -27 -12l-45 2l4 30q12 98 80 156q63 55 162 55q94 0 154 -49q70 -57 69 -158q0 -78 -53 -135q-20 -20 -43 -35q34 -14 65 -45q51 -57 52 -139q0 -94 -72 -162q-35 -33 -82 -49t-100 -16q-68 0 -115 20q-43 18 -76 52q-29 31 -43 68.5t-28 80.5z M322 -27l823 1463q14 25 45 24h57l-825 -1462l-2 -2q-18 -23 -43 -23h-55zM862 229l6 21l375 495h60v-483h145v-37q0 -12 -9 -23.5t-28 -11.5h-108v-217h-76v217h-324q-25 0 -37 23v2l-2 4zM969 262h258v342z" />
<glyph unicode="&#xbf;" horiz-adv-x="710" d="M16 -92q0 129 78 231q35 41 75 74t77 59q47 35 80.5 66t33.5 68l9 200h67v-205q0 -59 -43 -101t-98 -83q-37 -29 -73 -57.5t-64 -63.5q-63 -82 -64 -188q0 -68 28 -111t56 -67q37 -31 88 -47q51 -18 105 -19q53 0 96 12.5t74.5 31t54 36.5t35.5 31q12 10 19 15t18 5 q10 0 16 -4t10 -8l21 -29l-15 -16q-66 -66 -133 -100q-94 -47 -196 -48q-63 0 -131 23q-66 23 -113 61q-53 44 -80 101q-31 61 -31 133zM362 842v211h78v-211h-78z" />
<glyph unicode="&#xc0;" horiz-adv-x="1257" d="M-20 -27l620 1487h55l621 -1487h-57q-31 0 -37 27l-193 463h-721l-192 -463q-10 -27 -39 -27h-57zM285 1841h118q23 0 34.5 -4t23.5 -14l2 -2l303 -260h-84q-18 0 -35 10v2zM299 537h659l-329 790z" />
<glyph unicode="&#xc1;" horiz-adv-x="1257" d="M-20 -27l620 1487h55l621 -1487h-57q-31 0 -37 27l-193 463h-721l-192 -463q-10 -27 -39 -27h-57zM299 537h659l-329 790zM573 1573l304 260l2 2q12 10 23 14t34 4h119l-363 -268v-2q-16 -10 -35 -10h-84z" />
<glyph unicode="&#xc2;" horiz-adv-x="1257" d="M-20 -27l620 1487h55l621 -1487h-57q-31 0 -37 27l-193 463h-721l-192 -463q-10 -27 -39 -27h-57zM299 537h659l-329 790zM342 1550l262 240l8 8h11h16h12l8 -8l263 -240h-66h-18q-12 0 -20.5 5.5t-14.5 11.5l-172 145l-170 -145q-6 -6 -14.5 -11.5t-22.5 -5.5h-18h-64z " />
<glyph unicode="&#xc3;" horiz-adv-x="1257" d="M-20 -27l620 1487h55l621 -1487h-57q-31 0 -37 27l-193 463h-721l-192 -463q-10 -27 -39 -27h-57zM299 537h659l-329 790zM377 1563v26q0 66 39 115t108 49q43 0 77 -21.5t63 -45.5q25 -20 46 -36t44 -16q37 0 55 25q20 27 20 67v25h27h16h27v-27q0 -66 -35 -112 q-39 -51 -110 -51q-41 0 -75 22.5t-63 44.5q-25 20 -47 35.5t-45 15.5q-6 0 -17 -1t-23.5 -10t-22.5 -27.5t-12 -53.5l-3 -24h-24h-19h-26z" />
<glyph unicode="&#xc4;" horiz-adv-x="1257" d="M-20 -27l620 1487h55l621 -1487h-57q-31 0 -37 27l-193 463h-721l-192 -463q-10 -27 -39 -27h-57zM299 537h659l-329 790zM449 1677q0 74 51 125q49 49 127 49q76 0 125 -49q53 -49 53 -125t-53 -125t-125 -49q-74 0 -127 49q-51 51 -51 125zM524 1677q0 -45 29 -73.5 t74 -28.5t73 29q29 29 29 73q0 41 -29 74q-33 29 -73 29q-45 0 -74 -29t-29 -74z" />
<glyph unicode="&#xc5;" horiz-adv-x="1257" d="M-20 -27l620 1487h55l621 -1487h-57q-31 0 -37 27l-193 463h-721l-192 -463q-10 -27 -39 -27h-57zM299 537h659l-329 790zM449 1677q0 74 51 125q49 49 127 49q76 0 125 -49q53 -49 53 -125t-53 -125t-125 -49q-74 0 -127 49q-51 51 -51 125zM524 1677q0 -45 29 -73.5 t74 -28.5t73 29q29 29 29 73q0 41 -29 74q-33 29 -73 29q-45 0 -74 -29t-29 -74z" />
<glyph unicode="&#xc6;" horiz-adv-x="1882" d="M-59 -25l845 1475l9 12h14h954v-76h-889l80 -618h686v-76h-675l84 -641h720l-8 -76h-780l-63 490h-605l-268 -465q-10 -25 -39 -25h-20h-45zM354 539h555l-102 788z" />
<glyph unicode="&#xc7;" horiz-adv-x="1472" d="M139 715q0 170 51 309q51 137 148 240q98 104 225 155q131 55 289 56q80 0 144.5 -10.5t121.5 -32.5q102 -39 211 -132l17 -16l-13 -18l-4 -6l-2 -3l-2 -2q-2 -4 -9 -8t-18 -4q-12 0 -23 7t-28 20q-18 16 -50 38.5t-79 43t-112.5 35t-153.5 14.5q-137 0 -256 -47 q-117 -51 -201 -137q-86 -92 -131 -216q-47 -131 -47 -286q0 -158 47 -289q45 -127 129 -215q82 -88 195 -135t243 -47q164 0 273 47q49 20 94 51t98 78q4 4 10.5 9t16.5 5q14 0 27 -12l8 -8l20 -19l-20 -18q-53 -51 -105.5 -87t-111.5 -61q-68 -29 -141.5 -44t-159.5 -15 l-15 -49q76 -12 119 -37q68 -41 68 -115t-56 -112q-49 -37 -131 -37q-47 0 -92 16.5t-74 44.5l-18 19l18 18l5 4q4 4 11 9t17 5q8 0 14.5 -4t14.5 -8q12 -8 37.5 -20.5t72.5 -12.5q49 0 80 21q25 18 25 55q0 43 -41 59.5t-133 30.5l-31 4l10 31l25 80q-127 12 -229 59 q-123 57 -211 154q-92 104 -139.5 241.5t-47.5 303.5z" />
<glyph unicode="&#xc8;" horiz-adv-x="1228" d="M225 -29v1487h891v-76h-813v-618h690v-76h-690v-641h817l-6 -76h-889zM334 1841h119q23 0 34 -4t23 -14l2 -2l303 -260h-84q-18 0 -35 10v2z" />
<glyph unicode="&#xc9;" horiz-adv-x="1228" d="M225 -29v1487h891v-76h-813v-618h690v-76h-690v-641h817l-6 -76h-889zM522 1550l303 260l2 2q12 10 23.5 14.5t34.5 4.5h119l-363 -268v-2q-16 -10 -35 -11h-84z" />
<glyph unicode="&#xca;" horiz-adv-x="1228" d="M225 -29v1487h891v-76h-813v-618h690v-76h-690v-641h817l-6 -76h-889zM342 1550l262 240l8 8h11h16h12l8 -8l263 -240h-66h-18q-12 0 -20.5 5.5t-14.5 11.5l-172 145l-170 -145q-6 -6 -14.5 -11.5t-22.5 -5.5h-18h-64z" />
<glyph unicode="&#xcb;" horiz-adv-x="1228" d="M225 -29v1487h891v-76h-813v-618h690v-76h-690v-641h817l-6 -76h-889zM467 1583v211h78v-211h-78zM803 1583v211h78v-211h-78z" />
<glyph unicode="&#xcc;" horiz-adv-x="598" d="M-41 1841h119q23 0 34 -4t23 -14l2 -2l303 -260h-84q-18 0 -34 10v2zM262 -25v1487h78v-1487h-78z" />
<glyph unicode="&#xcd;" horiz-adv-x="598" d="M166 1561l303 260l2 2q12 10 23.5 14t33.5 4h119l-362 -268v-2q-16 -10 -35 -10h-84zM262 -25v1487h78v-1487h-78z" />
<glyph unicode="&#xce;" horiz-adv-x="598" d="M14 1550l262 240l9 8h10h16h13l8 -8l262 -240h-66h-18q-12 0 -20.5 5.5t-14.5 11.5l-172 145l-170 -145q-6 -6 -14 -11.5t-23 -5.5h-18h-64zM262 -25v1487h78v-1487h-78z" />
<glyph unicode="&#xcf;" horiz-adv-x="598" d="M96 1583v211h78v-211h-78zM262 -25v1487h78v-1487h-78zM432 1583v211h78v-211h-78z" />
<glyph unicode="&#xd0;" horiz-adv-x="1609" d="M25 690v74h237v694h539q154 0 280 -49q127 -49 219 -147q190 -201 191 -547q0 -170 -48 -308.5t-143 -236.5q-92 -98 -219 -147q-131 -51 -280 -52h-539v719h-237zM340 45h461q137 0 249.5 44t192.5 130q84 90 125 209q43 129 43 287q0 162 -43 289q-41 119 -125 208 q-80 86 -192.5 129t-249.5 43h-461v-620h408h26v-74h-26h-408v-645z" />
<glyph unicode="&#xd1;" horiz-adv-x="1548" d="M217 0v1434v26h27h8q23 0 37 -20l964 -1313v1307v26h27h20h27v-26v-1434v-27h-27h-6q-23 0 -34 19l-969 1319v-1311v-27h-27h-20h-27v27zM565 1569v26q0 66 39 115t109 49q43 0 76.5 -21.5t62.5 -45.5q25 -20 46.5 -36t43.5 -16q37 0 55 25q20 27 21 68v24h26h17h26v-26 q0 -66 -34 -113q-39 -51 -111 -51q-41 0 -74.5 22.5t-62.5 44.5q-25 20 -47.5 36t-44.5 16q-6 0 -17.5 -1.5t-24 -10.5t-22.5 -27.5t-12 -53.5l-2 -24h-25h-18h-27z" />
<glyph unicode="&#xd2;" horiz-adv-x="1632" d="M125 719q0 172 49 313q51 141 141 242q92 98 220 151q63 29 132.5 41.5t145.5 12.5t145.5 -12.5t133.5 -41.5q127 -53 219 -151q94 -102 143 -242.5t49 -312.5q0 -170 -49 -310.5t-143 -242.5q-92 -98 -219 -152q-129 -53 -279 -53t-278 53q-127 53 -220 152 q-94 102 -142 242.5t-48 310.5zM203 719q0 -315 172 -504q80 -86 192 -133q113 -47 246 -47q135 0 246.5 46t193.5 134q84 92 127 219t43 285t-43 286t-127 220q-82 90 -193.5 135t-246.5 45q-66 0 -128 -11.5t-118 -35.5q-113 -47 -192 -133q-172 -188 -172 -506zM469 1841 h119q23 0 34 -4t23 -14l2 -2l303 -260h-84q-18 0 -35 10v2z" />
<glyph unicode="&#xd3;" horiz-adv-x="1632" d="M125 719q0 172 49 313q51 141 141 242q92 98 220 151q63 29 132.5 41.5t145.5 12.5t145.5 -12.5t133.5 -41.5q127 -53 219 -151q94 -102 143 -242.5t49 -312.5q0 -170 -49 -310.5t-143 -242.5q-92 -98 -219 -152q-129 -53 -279 -53t-278 53q-127 53 -220 152 q-94 102 -142 242.5t-48 310.5zM203 719q0 -315 172 -504q80 -86 192 -133q113 -47 246 -47q135 0 246.5 46t193.5 134q84 92 127 219t43 285t-43 286t-127 220q-82 90 -193.5 135t-246.5 45q-66 0 -128 -11.5t-118 -35.5q-113 -47 -192 -133q-172 -188 -172 -506zM719 1561 l303 260l2 2q12 10 23.5 14t33.5 4h119l-362 -268v-2q-16 -10 -35 -10h-84z" />
<glyph unicode="&#xd4;" horiz-adv-x="1632" d="M125 719q0 172 49 313q51 141 141 242q92 98 220 151q63 29 132.5 41.5t145.5 12.5t145.5 -12.5t133.5 -41.5q127 -53 219 -151q94 -102 143 -242.5t49 -312.5q0 -170 -49 -310.5t-143 -242.5q-92 -98 -219 -152q-129 -53 -279 -53t-278 53q-127 53 -220 152 q-94 102 -142 242.5t-48 310.5zM203 719q0 -315 172 -504q80 -86 192 -133q113 -47 246 -47q135 0 246.5 46t193.5 134q84 92 127 219t43 285t-43 286t-127 220q-82 90 -193.5 135t-246.5 45q-66 0 -128 -11.5t-118 -35.5q-113 -47 -192 -133q-172 -188 -172 -506zM520 1550 l271 248h10h16h12l9 -8l262 -240h-66h-18q-12 0 -20.5 5.5t-14.5 11.5l-172 145l-170 -145q-6 -6 -14.5 -11.5t-22.5 -5.5h-18h-64z" />
<glyph unicode="&#xd5;" horiz-adv-x="1632" d="M125 719q0 172 49 313q51 141 141 242q92 98 220 151q63 29 132.5 41.5t145.5 12.5t145.5 -12.5t133.5 -41.5q127 -53 219 -151q94 -102 143 -242.5t49 -312.5q0 -170 -49 -310.5t-143 -242.5q-92 -98 -219 -152q-129 -53 -279 -53t-278 53q-127 53 -220 152 q-94 102 -142 242.5t-48 310.5zM203 719q0 -315 172 -504q80 -86 192 -133q113 -47 246 -47q135 0 246.5 46t193.5 134q84 92 127 219t43 285t-43 286t-127 220q-82 90 -193.5 135t-246.5 45q-66 0 -128 -11.5t-118 -35.5q-113 -47 -192 -133q-172 -188 -172 -506zM565 1569 v26q0 66 39 115t109 49q43 0 76.5 -21.5t62.5 -45.5q25 -20 46.5 -36t43.5 -16q37 0 55 25q20 27 21 68v24h26h17h26v-26q0 -66 -34 -113q-39 -51 -111 -51q-41 0 -74.5 22.5t-62.5 44.5q-25 20 -47.5 36t-44.5 16q-6 0 -17.5 -1.5t-24 -10.5t-22.5 -27.5t-12 -53.5l-2 -24 h-25h-18h-27z" />
<glyph unicode="&#xd6;" horiz-adv-x="1632" d="M125 719q0 172 49 313q51 141 141 242q92 98 220 151q63 29 132.5 41.5t145.5 12.5t145.5 -12.5t133.5 -41.5q127 -53 219 -151q94 -102 143 -242.5t49 -312.5q0 -170 -49 -310.5t-143 -242.5q-92 -98 -219 -152q-129 -53 -279 -53t-278 53q-127 53 -220 152 q-94 102 -142 242.5t-48 310.5zM203 719q0 -315 172 -504q80 -86 192 -133q113 -47 246 -47q135 0 246.5 46t193.5 134q84 92 127 219t43 285t-43 286t-127 220q-82 90 -193.5 135t-246.5 45q-66 0 -128 -11.5t-118 -35.5q-113 -47 -192 -133q-172 -188 -172 -506zM610 1583 v211h78v-211h-78zM946 1583v211h78v-211h-78z" />
<glyph unicode="&#xd7;" d="M137 279l400 399l-400 397l53 55l398 -397l395 395l53 -55l-395 -395l395 -397l-51 -52l-397 398l-400 -400z" />
<glyph unicode="&#xd8;" horiz-adv-x="1632" d="M127 721q0 174 51 313q51 143 141 240q92 100 220 153q129 53 276 54q131 0 248 -41q102 -35 180 -99l125 166l2 2q0 2 1 2t1 2q6 4 13.5 10.5t23.5 6.5h70l-181 -240q97 -96 150 -231q57 -156 57 -338q0 -170 -48 -310.5t-142 -242.5q-92 -98 -219 -152 q-131 -53 -281 -53q-127 0 -237 37q-100 35 -179 94l-147 -198q-16 -23 -43 -23h-68l203 268q-98 96 -156 236q-61 150 -61 344zM205 721q0 -174 53 -315q49 -119 131 -203l807 1077q-74 59 -160 90q-102 37 -221 37q-129 0 -246 -47q-113 -47 -192 -133q-86 -92 -129 -220 t-43 -286zM446 154q158 -117 369 -117q135 0 247 45t193 135q84 92 127 219t43 285q0 174 -51 307q-43 119 -123 201z" />
<glyph unicode="&#xd9;" horiz-adv-x="1507" d="M209 530v928h78v-926q0 -104 32.5 -196t92.5 -160q129 -147 342 -147t342 145q61 70 93 161t32 195v928h77v-928q0 -119 -36.5 -223t-108.5 -182q-72 -82 -172 -125q-106 -47 -227 -47t-226 47q-102 43 -172 125q-72 78 -109.5 182.5t-37.5 222.5zM416 1841h119 q23 0 34 -4t23 -14l2 -2l303 -260h-84q-18 0 -35 10v2z" />
<glyph unicode="&#xda;" horiz-adv-x="1507" d="M209 530v928h78v-926q0 -104 32.5 -196t92.5 -160q129 -147 342 -147t342 145q61 70 93 161t32 195v928h77v-928q0 -119 -36.5 -223t-108.5 -182q-72 -82 -172 -125q-106 -47 -227 -47t-226 47q-102 43 -172 125q-72 78 -109.5 182.5t-37.5 222.5zM627 1561l303 260l2 2 q12 10 23.5 14t33.5 4h119l-363 -268v-2q-16 -10 -34 -10h-84z" />
<glyph unicode="&#xdb;" horiz-adv-x="1507" d="M209 530v928h78v-926q0 -104 32.5 -196t92.5 -160q129 -147 342 -147t342 145q61 70 93 161t32 195v928h77v-928q0 -119 -36.5 -223t-108.5 -182q-72 -82 -172 -125q-106 -47 -227 -47t-226 47q-102 43 -172 125q-72 78 -109.5 182.5t-37.5 222.5zM465 1550l262 240l8 8 h10h17h12l8 -8l262 -240h-65h-18q-12 0 -20.5 5.5t-14.5 11.5l-172 145l-170 -145q-6 -6 -14.5 -11.5t-22.5 -5.5h-19h-63z" />
<glyph unicode="&#xdc;" horiz-adv-x="1507" d="M209 530v928h78v-926q0 -104 32.5 -196t92.5 -160q129 -147 342 -147t342 145q61 70 93 161t32 195v928h77v-928q0 -119 -36.5 -223t-108.5 -182q-72 -82 -172 -125q-106 -47 -227 -47t-226 47q-102 43 -172 125q-72 78 -109.5 182.5t-37.5 222.5zM547 1583v211h78v-211 h-78zM883 1583v211h78v-211h-78z" />
<glyph unicode="&#xdd;" horiz-adv-x="1175" d="M-8 1456h49h20q23 0 37 -20q121 -188 205 -317.5t138.5 -213.5t83 -130t43 -67.5t17.5 -25.5l3 -4l3 5t17.5 26.5t43 66.5t82.5 129t138 213t205 318q14 20 37 20h21h49l-27 -41l-530 -817v-602v-27h-27h-25h-26v27v602l-531 817zM449 1561l303 260l2 2q12 10 23 14t34 4 h119l-363 -268v-2q-16 -10 -35 -10h-83z" />
<glyph unicode="&#xde;" horiz-adv-x="1185" d="M258 -27v1487h78v-309h272q250 -1 377 -107q135 -111 135 -329q0 -94 -37 -174q-37 -78 -106 -140q-74 -61 -162 -90q-47 -16 -99 -24t-108 -8h-272v-306h-78zM336 352h272q98 0 183 31q41 12 74.5 31.5t62.5 44.5q55 49 84 114q31 68 30 142q0 94 -26 159 q-29 70 -78 111q-109 92 -330 92h-272v-725z" />
<glyph unicode="&#xdf;" horiz-adv-x="1132" d="M190 -25v1061q0 205 129 328q57 55 142 84q80 29 170 29q72 0 139 -23q66 -23 111 -63q47 -37 71 -91q27 -51 27 -110q0 -104 -72 -193q-31 -37 -68.5 -65.5t-74.5 -54.5q-55 -41 -96 -78t-41 -84q0 -51 45 -88q23 -16 53.5 -28.5t65.5 -25.5q45 -16 89 -35.5t83 -50.5 q86 -78 86 -204q0 -68 -24 -127.5t-71 -102.5q-98 -94 -260 -94q-53 0 -99 9t-87 26q-43 20 -76 44.5t-61 47.5l-21 18q27 29 36 35t22 6q10 0 20 -7t25 -17q14 -12 34.5 -26.5t49 -29t67.5 -23.5t90 -9q66 0 119 18.5t90 54.5q31 29 51 78q18 43 19 97q0 98 -64 153 q-31 25 -69.5 41.5t-79.5 30.5t-76 28.5t-63 36.5q-70 55 -70 144q0 66 53 125q23 25 52.5 47t60.5 45q35 25 68.5 51.5t62.5 56.5q57 70 57 152q0 25 -13 60.5t-46 70.5q-33 37 -84 55q-55 25 -131 25t-137 -21q-66 -20 -115 -63q-51 -45 -80 -113q-31 -74 -31 -170v-1061 h-78z" />
<glyph unicode="&#xe0;" horiz-adv-x="960" d="M94 238q0 74 45 137q41 57 131 98q41 20 94.5 36.5t116.5 27.5q59 10 127 16t146 8v105q0 37 -3 70.5t-14 62.5q-16 61 -45 96q-66 80 -184 80q-92 0 -176 -45q-35 -18 -58.5 -39t-40.5 -37q-14 -14 -24 -21.5t-23 -7.5q-10 0 -17 5.5t-11 9.5l-23 22l19 19 q41 43 79.5 72.5t79.5 50.5q88 45 195 45q162 -1 246 -107q41 -47 59 -116.5t18 -159.5v-664v-27h-30q-41 0 -41 41l-4 103q-37 -35 -71 -60.5t-69 -44.5q-109 -55 -239 -55q-113 0 -189 64q-94 76 -94 215zM172 238q0 -57 18.5 -96.5t48 -64t66.5 -34.5t72 -10 q121 0 221 57q45 25 83 58.5t73 68.5v270q-147 -6 -258 -24.5t-183 -50.5q-141 -66 -141 -174zM283 1479h82q23 0 36 -6.5t29 -28.5l197 -283h-66q-18 0 -37 19z" />
<glyph unicode="&#xe1;" horiz-adv-x="960" d="M94 238q0 74 45 137q41 57 131 98q41 20 94.5 36.5t116.5 27.5q59 10 127 16t146 8v105q0 37 -3 70.5t-14 62.5q-16 61 -45 96q-66 80 -184 80q-92 0 -176 -45q-35 -18 -58.5 -39t-40.5 -37q-14 -14 -24 -21.5t-23 -7.5q-10 0 -17 5.5t-11 9.5l-23 22l19 19 q41 43 79.5 72.5t79.5 50.5q88 45 195 45q162 -1 246 -107q41 -47 59 -116.5t18 -159.5v-664v-27h-30q-41 0 -41 41l-4 103q-37 -35 -71 -60.5t-69 -44.5q-109 -55 -239 -55q-113 0 -189 64q-94 76 -94 215zM172 238q0 -57 18.5 -96.5t48 -64t66.5 -34.5t72 -10 q121 0 221 57q45 25 83 58.5t73 68.5v270q-147 -6 -258 -24.5t-183 -50.5q-141 -66 -141 -174zM383 1161l197 283q16 23 29.5 29t35.5 6h82l-242 -299q-18 -18 -36 -19h-66z" />
<glyph unicode="&#xe2;" horiz-adv-x="960" d="M94 238q0 74 45 137q41 57 131 98q41 20 94.5 36.5t116.5 27.5q59 10 127 16t146 8v105q0 37 -3 70.5t-14 62.5q-16 61 -45 96q-66 80 -184 80q-92 0 -176 -45q-35 -18 -58.5 -39t-40.5 -37q-14 -14 -24 -21.5t-23 -7.5q-10 0 -17 5.5t-11 9.5l-23 22l19 19 q41 43 79.5 72.5t79.5 50.5q88 45 195 45q162 -1 246 -107q41 -47 59 -116.5t18 -159.5v-664v-27h-30q-41 0 -41 41l-4 103q-37 -35 -71 -60.5t-69 -44.5q-109 -55 -239 -55q-113 0 -189 64q-94 76 -94 215zM172 238q0 -57 18.5 -96.5t48 -64t66.5 -34.5t72 -10 q121 0 221 57q45 25 83 58.5t73 68.5v270q-147 -6 -258 -24.5t-183 -50.5q-141 -66 -141 -174zM221 1178l41 45l217 235l8 8h11h16h12l9 -8l217 -235l41 -45h-62h-18q-12 0 -20.5 5t-14.5 11l-172 186l-170 -186q-6 -6 -14.5 -11t-22.5 -5h-18h-60z" />
<glyph unicode="&#xe3;" horiz-adv-x="960" d="M94 238q0 74 45 137q41 57 131 98q41 20 94.5 36.5t116.5 27.5q59 10 127 16t146 8v105q0 37 -3 70.5t-14 62.5q-16 61 -45 96q-66 80 -184 80q-92 0 -176 -45q-35 -18 -58.5 -39t-40.5 -37q-14 -14 -24 -21.5t-23 -7.5q-10 0 -17 5.5t-11 9.5l-23 22l19 19 q41 43 79.5 72.5t79.5 50.5q88 45 195 45q162 -1 246 -107q41 -47 59 -116.5t18 -159.5v-664v-27h-30q-41 0 -41 41l-4 103q-37 -35 -71 -60.5t-69 -44.5q-109 -55 -239 -55q-113 0 -189 64q-94 76 -94 215zM172 238q0 -57 18.5 -96.5t48 -64t66.5 -34.5t72 -10 q121 0 221 57q45 25 83 58.5t73 68.5v270q-147 -6 -258 -24.5t-183 -50.5q-141 -66 -141 -174zM246 1225v26q0 66 39 115t108 49q43 0 77 -21.5t62 -45.5q25 -20 46.5 -36t44.5 -16q37 0 55 25q20 27 20 68v24h27h16h27v-27q0 -66 -35 -112q-39 -51 -110 -51q-41 0 -75 22.5 t-63 44.5q-25 20 -47 35.5t-45 15.5q-6 0 -17 -1t-23.5 -10t-23 -27.5t-12.5 -53.5l-2 -24h-24h-19h-26z" />
<glyph unicode="&#xe4;" horiz-adv-x="960" d="M94 238q0 74 45 137q41 57 131 98q41 20 94.5 36.5t116.5 27.5q59 10 127 16t146 8v105q0 37 -3 70.5t-14 62.5q-16 61 -45 96q-66 80 -184 80q-92 0 -176 -45q-35 -18 -58.5 -39t-40.5 -37q-14 -14 -24 -21.5t-23 -7.5q-10 0 -17 5.5t-11 9.5l-23 22l19 19 q41 43 79.5 72.5t79.5 50.5q88 45 195 45q162 -1 246 -107q41 -47 59 -116.5t18 -159.5v-664v-27h-30q-41 0 -41 41l-4 103q-37 -35 -71 -60.5t-69 -44.5q-109 -55 -239 -55q-113 0 -189 64q-94 76 -94 215zM172 238q0 -57 18.5 -96.5t48 -64t66.5 -34.5t72 -10 q121 0 221 57q45 25 83 58.5t73 68.5v270q-147 -6 -258 -24.5t-183 -50.5q-141 -66 -141 -174zM293 1214v211h78v-211h-78zM629 1214v211h78v-211h-78z" />
<glyph unicode="&#xe5;" horiz-adv-x="960" d="M94 238q0 74 45 137q41 57 131 98q41 20 94.5 36.5t116.5 27.5q59 10 127 16t146 8v105q0 37 -3 70.5t-14 62.5q-16 61 -45 96q-66 80 -184 80q-92 0 -176 -45q-35 -18 -58.5 -39t-40.5 -37q-14 -14 -24 -21.5t-23 -7.5q-10 0 -17 5.5t-11 9.5l-23 22l19 19 q41 43 79.5 72.5t79.5 50.5q88 45 195 45q162 -1 246 -107q41 -47 59 -116.5t18 -159.5v-664v-27h-30q-41 0 -41 41l-4 103q-37 -35 -71 -60.5t-69 -44.5q-109 -55 -239 -55q-113 0 -189 64q-94 76 -94 215zM172 238q0 -57 18.5 -96.5t48 -64t66.5 -34.5t72 -10 q121 0 221 57q45 25 83 58.5t73 68.5v270q-147 -6 -258 -24.5t-183 -50.5q-141 -66 -141 -174zM317 1319q0 74 52 125q49 49 127 49q76 0 125 -49q53 -49 53 -125t-53 -125t-125 -49q-74 0 -127 49q-51 51 -52 125zM393 1319q0 -45 29 -73.5t74 -28.5t73 28q29 29 29 74 q0 41 -29 74q-33 29 -73 28q-45 0 -74 -28q-29 -29 -29 -74z" />
<glyph unicode="&#xe6;" horiz-adv-x="1628" d="M100 254q0 78 45 141q45 61 131 109q172 88 484 96v62q0 154 -62 231q-59 78 -184 78q-55 0 -98 -12.5t-76 -31t-56.5 -39t-39.5 -34.5q-16 -16 -26.5 -24.5t-24.5 -8.5q-10 0 -19.5 8.5t-32.5 28.5l19 19q82 86 159 124q45 23 93.5 33t101.5 10q78 0 137 -24 q29 -14 54.5 -32.5t46.5 -43.5q41 -49 61 -119q2 -6 6 -22q37 82 99 141q51 47 118 76q68 25 148 24q80 0 145 -30q70 -31 119 -92q51 -63 76 -150q27 -88 26 -207q0 -16 -10 -26.5t-27 -10.5h-677v-8q0 -233 100 -364q47 -59 111 -90q70 -33 141 -33q94 0 180 41 q33 16 54.5 32.5t35.5 26.5q10 10 16.5 14.5t16.5 4.5t19.5 -6.5t27.5 -24.5l-12 -19q-16 -25 -50 -50t-79 -46q-104 -47 -209 -47q-41 0 -78 7t-72 20q-35 14 -64.5 32.5t-55.5 44.5q-68 61 -107 168q-6 -16 -12 -32.5t-17 -32.5q-37 -72 -104 -125q-53 -41 -121 -63.5 t-139 -22.5q-61 0 -117 16q-31 8 -55.5 21.5t-46.5 30.5q-49 39 -72 94q-27 63 -27 137zM178 254q0 -115 68 -172q63 -53 172 -53q72 0 134 24.5t110 71.5q47 47 71 108q27 61 27 144v149q-70 -4 -132.5 -10t-115.5 -16q-113 -20 -193 -60q-141 -72 -141 -186zM842 600h635 q-6 178 -86 277q-76 94 -205 94q-78 0 -139 -27q-29 -14 -55.5 -33.5t-49.5 -46.5q-84 -96 -100 -264z" />
<glyph unicode="&#xe7;" horiz-adv-x="911" d="M74 502q0 121 30.5 220t90.5 171q129 154 344 154q94 0 172 -33q72 -29 131 -78l20 -18l-20 -21l-6 -6q-12 -12 -27 -12q-16 0 -37 18q-25 18 -80 47t-153 29q-96 0 -164 -33q-72 -31 -121 -92q-102 -125 -102 -346q0 -117 26 -203q25 -84 76 -145q47 -61 115 -88 q68 -31 153 -31q102 0 180 37q33 16 53.5 32.5t35.5 28.5q10 10 18 15.5t18 5.5q14 0 27 -13l4 -4l16 -16l-14 -19q-18 -27 -51 -51t-74 -45q-90 -41 -192 -45l-17 -53q78 -12 121 -37q68 -41 68 -115q0 -72 -58 -112q-49 -37 -129 -37q-49 0 -94 16.5t-74 44.5l-16 19 l18 18l5 4q4 4 11 9.5t17 5.5t16.5 -4.5t12.5 -8.5q14 -10 38.5 -21.5t72.5 -11.5q49 0 79 21q25 18 25 55q0 43 -41 59.5t-133 30.5l-31 4l10 31l27 84q-41 4 -77 14.5t-68 26.5q-80 35 -138 109q-57 68 -86 168q-29 102 -28 221z" />
<glyph unicode="&#xe8;" horiz-adv-x="1024" d="M70 520q0 236 123 377q125 147 342 147q86 0 157 -30q76 -31 129 -88q115 -127 115 -340q0 -16 -11.5 -26.5t-27.5 -10.5h-750v-17v-12q0 -115 29 -213q29 -90 80 -151q53 -59 123 -90q68 -33 160 -33q63 0 112 11t86 27.5t61.5 33t39.5 28.5q12 10 19 14.5t17 4.5 q18 0 27 -13l4 -4l19 -16l-17 -19q-43 -53 -143 -94q-37 -16 -95.5 -31.5t-129.5 -15.5q-217 0 -344 152q-61 74 -93 176q-16 53 -24 111.5t-8 121.5zM154 621h706q-6 160 -94 253q-41 47 -102 72q-59 25 -129 25q-86 0 -152 -27q-66 -25 -115 -76q-90 -90 -114 -247z M322 1479h81q23 0 36.5 -6.5t29.5 -28.5l197 -283h-66q-18 0 -37 19z" />
<glyph unicode="&#xe9;" horiz-adv-x="1024" d="M70 520q0 236 123 377q125 147 342 147q86 0 157 -30q76 -31 129 -88q115 -127 115 -340q0 -16 -11.5 -26.5t-27.5 -10.5h-750v-17v-12q0 -115 29 -213q29 -90 80 -151q53 -59 123 -90q68 -33 160 -33q63 0 112 11t86 27.5t61.5 33t39.5 28.5q12 10 19 14.5t17 4.5 q18 0 27 -13l4 -4l19 -16l-17 -19q-43 -53 -143 -94q-37 -16 -95.5 -31.5t-129.5 -15.5q-217 0 -344 152q-61 74 -93 176q-16 53 -24 111.5t-8 121.5zM154 621h706q-6 160 -94 253q-41 47 -102 72q-59 25 -129 25q-86 0 -152 -27q-66 -25 -115 -76q-90 -90 -114 -247z M422 1161l196 283q16 23 30 29t36 6h82l-242 -299q-18 -18 -37 -19h-65z" />
<glyph unicode="&#xea;" horiz-adv-x="1024" d="M70 520q0 236 123 377q125 147 342 147q86 0 157 -30q76 -31 129 -88q115 -127 115 -340q0 -16 -11.5 -26.5t-27.5 -10.5h-750v-17v-12q0 -115 29 -213q29 -90 80 -151q53 -59 123 -90q68 -33 160 -33q63 0 112 11t86 27.5t61.5 33t39.5 28.5q12 10 19 14.5t17 4.5 q18 0 27 -13l4 -4l19 -16l-17 -19q-43 -53 -143 -94q-37 -16 -95.5 -31.5t-129.5 -15.5q-217 0 -344 152q-61 74 -93 176q-16 53 -24 111.5t-8 121.5zM154 621h706q-6 160 -94 253q-41 47 -102 72q-59 25 -129 25q-86 0 -152 -27q-66 -25 -115 -76q-90 -90 -114 -247z M256 1178l41 45l217 235l8 8h10h17h12l8 -8l217 -235l41 -45h-61h-18q-12 0 -20.5 5t-14.5 11l-172 186l-170 -186q-6 -6 -14.5 -11t-22.5 -5h-19h-59z" />
<glyph unicode="&#xeb;" horiz-adv-x="1024" d="M70 520q0 236 123 377q125 147 342 147q86 0 157 -30q76 -31 129 -88q115 -127 115 -340q0 -16 -11.5 -26.5t-27.5 -10.5h-750v-17v-12q0 -115 29 -213q29 -90 80 -151q53 -59 123 -90q68 -33 160 -33q63 0 112 11t86 27.5t61.5 33t39.5 28.5q12 10 19 14.5t17 4.5 q18 0 27 -13l4 -4l19 -16l-17 -19q-43 -53 -143 -94q-37 -16 -95.5 -31.5t-129.5 -15.5q-217 0 -344 152q-61 74 -93 176q-16 53 -24 111.5t-8 121.5zM154 621h706q-6 160 -94 253q-41 47 -102 72q-59 25 -129 25q-86 0 -152 -27q-66 -25 -115 -76q-90 -90 -114 -247z M332 1214v211h78v-211h-78zM668 1214v211h77v-211h-77z" />
<glyph unicode="&#xec;" horiz-adv-x="454" d="M-72 1479h82q23 0 37 -6.5t29 -28.5l196 -283h-65q-18 0 -37 19zM190 -14v1056h78v-1056h-78z" />
<glyph unicode="&#xed;" horiz-adv-x="454" d="M184 1161l197 283q14 23 28.5 29t36.5 6h82l-241 -299q-18 -18 -37 -19h-66zM190 -14v1056h78v-1056h-78z" />
<glyph unicode="&#xee;" horiz-adv-x="454" d="M-55 1178l41 45l217 235l8 8h10h17h12l8 -8l217 -235l41 -45h-61h-19q-12 0 -20 5t-15 11l-172 186l-170 -186q-6 -6 -14 -11t-22 -5h-19h-59zM190 -14v1056h78v-1056h-78z" />
<glyph unicode="&#xef;" horiz-adv-x="454" d="M20 1214v211h78v-211h-78zM190 -14v1056h78v-1056h-78zM356 1214v211h78v-211h-78z" />
<glyph unicode="&#xf0;" horiz-adv-x="1067" d="M76 455q0 106 30 198q27 92 89 162q129 147 342 148q137 0 251 -76q61 -41 109 -103q6 -8 14 -20q-18 131 -71 237q-70 135 -185 218l-135 -142l-18 -20q-23 23 -30 32t-7 19q0 18 12 27l117 125q-129 74 -285 98l-16 6q-16 10 -17 27v15t3 30l30 -6q197 -31 336 -117 l123 135l20 20l23 -22q4 -4 8 -10t4 -19q0 -4 -2 -12t-12 -16l-104 -117q291 -219 290 -666q0 -70 -7 -134t-19 -122q-16 -59 -37 -110.5t-49 -94.5q-61 -90 -148 -135q-90 -49 -209 -49q-92 0 -174 35t-143 100q-66 68 -98 156q-35 94 -35 203zM154 455q0 -96 30 -176 q27 -76 82 -134q53 -53 120 -81.5t140 -28.5q184 0 289 147q96 141 107 387q-16 59 -47 115.5t-74 99.5q-49 47 -115 76q-35 16 -71.5 22.5t-77.5 6.5q-94 0 -166 -33q-70 -31 -119 -88q-49 -59 -74 -137q-25 -80 -24 -176z" />
<glyph unicode="&#xf1;" horiz-adv-x="1081" d="M154 -25v1031v26h32q18 0 29.5 -12t11.5 -31l2 -119q61 70 133 113q113 66 234 66q86 0 156 -29q69 -29 114 -80q88 -102 88 -295v-670h-77v670q0 164 -70 246q-68 84 -211 84q-106 0 -203 -60q-92 -57 -162 -159v-781h-77zM299 1231v26q0 66 39 115t108 49 q43 0 77 -21.5t63 -45.5q25 -20 46 -35.5t44 -15.5q37 0 55 24q20 27 21 68v24h26h17h26v-26q0 -66 -35 -113q-39 -51 -110 -51q-41 0 -75 22.5t-62 44.5q-25 20 -47.5 36t-45.5 16q-6 0 -17 -1t-23.5 -10.5t-22.5 -28t-12 -53.5l-2 -24h-25h-18h-27z" />
<glyph unicode="&#xf2;" horiz-adv-x="1081" d="M76 504q0 248 119 391q63 78 147 113q88 41 199 41q106 0 198 -41q85 -35 148 -113q119 -143 119 -391q0 -121 -31 -219q-31 -102 -88 -172q-61 -74 -148 -111q-86 -39 -198 -39q-115 0 -199 39q-86 37 -147 111q-59 72 -91 172q-29 102 -28 219zM154 504q0 -109 24 -195 q25 -86 74 -147t119 -92q72 -33 170 -33t170 33q68 31 118 92q45 61 74 147q25 86 25 195q0 215 -99 342q-51 63 -120 94q-76 35 -168 35q-94 0 -170 -35q-68 -29 -119 -94q-98 -123 -98 -342zM326 1479h82q23 0 36 -6.5t29 -28.5l197 -283h-66q-18 0 -37 19z" />
<glyph unicode="&#xf3;" horiz-adv-x="1081" d="M76 504q0 248 119 391q63 78 147 113q88 41 199 41q106 0 198 -41q85 -35 148 -113q119 -143 119 -391q0 -121 -31 -219q-31 -102 -88 -172q-61 -74 -148 -111q-86 -39 -198 -39q-115 0 -199 39q-86 37 -147 111q-59 72 -91 172q-29 102 -28 219zM154 504q0 -109 24 -195 q25 -86 74 -147t119 -92q72 -33 170 -33t170 33q68 31 118 92q45 61 74 147q25 86 25 195q0 215 -99 342q-51 63 -120 94q-76 35 -168 35q-94 0 -170 -35q-68 -29 -119 -94q-98 -123 -98 -342zM426 1161l197 283q16 23 29.5 29t35.5 6h82l-242 -299q-18 -18 -36 -19h-66z " />
<glyph unicode="&#xf4;" horiz-adv-x="1081" d="M76 504q0 248 119 391q63 78 147 113q88 41 199 41q106 0 198 -41q85 -35 148 -113q119 -143 119 -391q0 -121 -31 -219q-31 -102 -88 -172q-61 -74 -148 -111q-86 -39 -198 -39q-115 0 -199 39q-86 37 -147 111q-59 72 -91 172q-29 102 -28 219zM154 504q0 -109 24 -195 q25 -86 74 -147t119 -92q72 -33 170 -33t170 33q68 31 118 92q45 61 74 147q25 86 25 195q0 215 -99 342q-51 63 -120 94q-76 35 -168 35q-94 0 -170 -35q-68 -29 -119 -94q-98 -123 -98 -342zM256 1178l41 45l217 235l8 8h10h17h12l8 -8l217 -235l41 -45h-61h-18 q-12 0 -20.5 5t-14.5 11l-172 186l-170 -186q-6 -6 -14.5 -11t-22.5 -5h-19h-59z" />
<glyph unicode="&#xf5;" horiz-adv-x="1081" d="M76 504q0 248 119 391q63 78 147 113q88 41 199 41q106 0 198 -41q85 -35 148 -113q119 -143 119 -391q0 -121 -31 -219q-31 -102 -88 -172q-61 -74 -148 -111q-86 -39 -198 -39q-115 0 -199 39q-86 37 -147 111q-59 72 -91 172q-29 102 -28 219zM154 504q0 -109 24 -195 q25 -86 74 -147t119 -92q72 -33 170 -33t170 33q68 31 118 92q45 61 74 147q25 86 25 195q0 215 -99 342q-51 63 -120 94q-76 35 -168 35q-94 0 -170 -35q-68 -29 -119 -94q-98 -123 -98 -342zM287 1225v26q0 66 39 115t108 49q43 0 77 -21.5t62 -45.5q25 -20 46.5 -36 t44.5 -16q37 0 55 25q20 27 20 68v24h27h16h27v-27q0 -66 -35 -112q-39 -51 -110 -51q-41 0 -75 22.5t-63 44.5q-25 20 -47 35.5t-45 15.5q-6 0 -17 -1t-23.5 -10t-23 -27.5t-12.5 -53.5l-2 -24h-24h-19h-26z" />
<glyph unicode="&#xf6;" horiz-adv-x="1081" d="M76 504q0 248 119 391q63 78 147 113q88 41 199 41q106 0 198 -41q85 -35 148 -113q119 -143 119 -391q0 -121 -31 -219q-31 -102 -88 -172q-61 -74 -148 -111q-86 -39 -198 -39q-115 0 -199 39q-86 37 -147 111q-59 72 -91 172q-29 102 -28 219zM154 504q0 -109 24 -195 q25 -86 74 -147t119 -92q72 -33 170 -33t170 33q68 31 118 92q45 61 74 147q25 86 25 195q0 215 -99 342q-51 63 -120 94q-76 35 -168 35q-94 0 -170 -35q-68 -29 -119 -94q-98 -123 -98 -342zM336 1214v211h78v-211h-78zM672 1214v211h78v-211h-78z" />
<glyph unicode="&#xf7;" d="M92 647v27v20v27h27h944h27v-27v-20v-27h-27h-944h-27zM498 317q0 37 26 68q31 27 66 27q41 0 67.5 -27t26.5 -68q0 -35 -27 -65q-31 -27 -67 -27q-35 0 -66 27q-27 31 -26 65zM498 1047q0 37 26 67q31 27 66 27q41 0 67.5 -27t26.5 -67q0 -35 -27 -66q-30 -27 -67 -27 q-35 0 -66 27q-27 31 -26 66z" />
<glyph unicode="&#xf8;" horiz-adv-x="1081" d="M63 -94l148 198q-66 72 -99.5 174.5t-33.5 231.5q0 123 31 221q29 98 88 172q59 72 147 113q86 39 199 39q184 0 301 -105l94 125q6 6 13 11.5t24 5.5h69l-149 -199q113 -139 113 -383q0 -117 -29 -219q-31 -98 -90 -170q-59 -76 -148 -113q-84 -39 -198 -39 q-160 0 -277 82l-92 -123q-16 -23 -43 -22h-68zM156 510q0 -123 30 -215q25 -76 72 -131l541 725q-41 39 -99 63q-74 29 -157 29q-90 0 -168 -33q-74 -35 -121 -94q-98 -127 -98 -344zM313 113q88 -70 230 -70q98 0 170 33q70 33 118 94q49 57 74 145q25 86 25 195 q0 113 -27 199q-18 70 -55 120z" />
<glyph unicode="&#xf9;" horiz-adv-x="1081" d="M131 354v670h78v-670q0 -160 70 -245q72 -84 210 -84q109 0 203 59q90 53 162 160v780h78v-1030v-27h-33q-18 0 -29.5 12.5t-11.5 30.5l-2 119q-61 -70 -133 -113q-109 -66 -234 -65q-86 0 -155 29q-66 26 -113 79q-90 106 -90 295zM317 1479h82q23 0 36.5 -6.5 t29.5 -28.5l197 -283h-66q-18 0 -37 19z" />
<glyph unicode="&#xfa;" horiz-adv-x="1081" d="M131 354v670h78v-670q0 -160 70 -245q72 -84 210 -84q109 0 203 59q90 53 162 160v780h78v-1030v-27h-33q-18 0 -29.5 12.5t-11.5 30.5l-2 119q-61 -70 -133 -113q-109 -66 -234 -65q-86 0 -155 29q-66 26 -113 79q-90 106 -90 295zM418 1161l196 283q16 23 29.5 29 t36.5 6h82l-242 -299q-18 -18 -37 -19h-65z" />
<glyph unicode="&#xfb;" horiz-adv-x="1081" d="M131 354v670h78v-670q0 -160 70 -245q72 -84 210 -84q109 0 203 59q90 53 162 160v780h78v-1030v-27h-33q-18 0 -29.5 12.5t-11.5 30.5l-2 119q-61 -70 -133 -113q-109 -66 -234 -65q-86 0 -155 29q-66 26 -113 79q-90 106 -90 295zM256 1178l41 45l217 235l8 8h10h17h12 l8 -8l217 -235l41 -45h-61h-18q-12 0 -20.5 5t-14.5 11l-172 186l-170 -186q-6 -6 -14.5 -11t-22.5 -5h-19h-59z" />
<glyph unicode="&#xfc;" horiz-adv-x="1081" d="M131 354v670h78v-670q0 -160 70 -245q72 -84 210 -84q109 0 203 59q90 53 162 160v780h78v-1030v-27h-33q-18 0 -29.5 12.5t-11.5 30.5l-2 119q-61 -70 -133 -113q-109 -66 -234 -65q-86 0 -155 29q-66 26 -113 79q-90 106 -90 295zM328 1214v211h78v-211h-78zM664 1214 v211h77v-211h-77z" />
<glyph unicode="&#xfd;" horiz-adv-x="952" d="M-10 1022h55q31 0 45 -31l387 -887l389 889q10 18 22.5 23.5t20.5 5.5h56l-609 -1387q-16 -39 -49 -38h-55l184 411zM391 1161l197 283q16 23 29.5 29t35.5 6h82l-241 -299q-18 -18 -37 -19h-66z" />
<glyph unicode="&#xfe;" horiz-adv-x="1067" d="M150 -399v1896h77v-625q57 66 125 107q102 63 221 63q211 0 320 -133q53 -66 82 -170q27 -98 26 -235q0 -55 -6 -108.5t-22 -100.5q-27 -100 -88 -174q-61 -80 -150.5 -122t-199.5 -42q-119 0 -205 49q-55 29 -103 80v-485h-77zM227 205q31 -47 64 -80t71 -53 q72 -41 173 -41q96 0 174 37q70 33 118 98q96 127 97 338q0 61 -5.5 113.5t-17.5 97.5q-20 84 -65 145q-45 55 -109 82q-61 27 -154 27q-102 0 -192 -58q-84 -55 -154 -157v-549z" />
<glyph unicode="&#xff;" horiz-adv-x="952" d="M-10 1022h55q31 0 45 -31l387 -887l389 889q10 18 22.5 23.5t20.5 5.5h56l-609 -1387q-16 -39 -49 -38h-55l184 411zM299 1214v211h78v-211h-78zM635 1214v211h78v-211h-78z" />
<glyph unicode="&#x152;" horiz-adv-x="2312" d="M127 713q0 86 11.5 163.5t33.5 149.5q47 143 129 240q82 100 197 153q113 53 252 54q119 0 221 -37q98 -35 180 -109q78 -72 131 -172q12 -27 23 -51v352h888v-76h-813v-618h691v-76h-691v-641h820l-9 -76h-886v355q-4 -12 -10.5 -24.5t-12.5 -25.5q-51 -98 -131 -172 q-80 -72 -180 -108q-51 -16 -106.5 -26.5t-114.5 -10.5q-133 0 -252 53q-113 51 -197 152q-86 102 -130 241.5t-44 309.5zM205 713q0 -315 157 -504q35 -43 79 -76t94 -55q104 -47 219 -47q123 0 223 46t172 132q76 92 115 220t39 284q0 160 -39 287.5t-115 220.5 q-147 178 -395 178q-121 0 -219 -45q-102 -47 -173 -133q-78 -92 -117.5 -220.5t-39.5 -287.5z" />
<glyph unicode="&#x153;" horiz-adv-x="1742" d="M76 498q0 119 28 221q27 100 84 172q57 76 138 113q80 39 186 38q90 0 166 -28q76 -33 125 -88q27 -29 48 -62t38 -73q8 -23 18 -50q33 111 103 183q53 59 125 88q74 31 159 30q80 0 146 -30q70 -31 119 -92q51 -63 75 -150q27 -88 27 -207q0 -16 -10.5 -26.5 t-26.5 -10.5h-678v-8q0 -233 101 -364q47 -59 110 -91q70 -33 141 -32q94 0 181 41q33 16 54 32.5t36 26.5q10 10 16 14.5t17 4.5q10 0 17 -3.5t11 -7.5l4 -4l15 -16l-13 -19q-16 -25 -50 -50t-79 -46q-104 -47 -209 -47q-88 0 -157 31q-76 33 -125 88q-51 53 -86 137 q-4 12 -9.5 24.5t-9.5 26.5q-4 -12 -8 -24.5t-8 -22.5q-33 -80 -86 -139q-57 -61 -129 -88q-78 -33 -168 -33q-100 0 -186 41q-80 37 -138 111q-55 72 -83.5 170t-28.5 219zM154 498q0 -106 23.5 -193.5t68.5 -146.5q45 -61 110 -92q74 -35 156 -35q174 0 266 127 q45 57 68 145q12 43 17 92t5 103q0 55 -5 104t-17 92q-20 88 -68 150q-92 125 -266 125q-88 0 -156 -33q-66 -31 -110 -92q-92 -127 -92 -346zM952 598h635q-6 178 -86 276q-76 94 -205 95q-78 0 -139 -27q-29 -14 -55.5 -33.5t-48.5 -46.5q-84 -96 -101 -264z" />
<glyph unicode="&#x178;" horiz-adv-x="1175" d="M-8 1456h49h20q23 0 37 -20q121 -188 205 -317.5t138.5 -213.5t83 -130t43 -67.5t17.5 -25.5l3 -4l3 5t17.5 26.5t43 66.5t82.5 129t138 213t205 318q14 20 37 20h21h49l-27 -41l-530 -817v-602v-27h-27h-25h-26v27v602l-531 817zM383 1604v211h78v-211h-78zM719 1604 v211h78v-211h-78z" />
<glyph unicode="&#x2c6;" horiz-adv-x="573" d="M-4 1194l262 240l8 8h10h17h12l8 -8l262 -240h-65h-18q-12 0 -20.5 5t-14.5 11l-172 146l-170 -146q-6 -6 -14.5 -11t-22.5 -5h-19h-63z" />
<glyph unicode="&#x2dc;" horiz-adv-x="573" d="M31 1229v26q0 66 39 115t108 49q43 0 77 -21.5t62 -45.5q25 -20 46.5 -36t44.5 -16q37 0 55 25q20 27 20 68v24h27h16h27v-26q0 -66 -35 -113q-39 -51 -110 -51q-41 0 -75 22.5t-63 44.5q-25 20 -47 36t-45 16q-6 0 -17 -1.5t-23.5 -10.5t-23 -27.5t-12.5 -53.5l-2 -24 h-24h-19h-26z" />
<glyph unicode="&#x2000;" horiz-adv-x="926" />
<glyph unicode="&#x2001;" horiz-adv-x="1853" />
<glyph unicode="&#x2002;" horiz-adv-x="926" />
<glyph unicode="&#x2003;" horiz-adv-x="1853" />
<glyph unicode="&#x2004;" horiz-adv-x="617" />
<glyph unicode="&#x2005;" horiz-adv-x="463" />
<glyph unicode="&#x2006;" horiz-adv-x="308" />
<glyph unicode="&#x2007;" horiz-adv-x="308" />
<glyph unicode="&#x2008;" horiz-adv-x="231" />
<glyph unicode="&#x2009;" horiz-adv-x="370" />
<glyph unicode="&#x200a;" horiz-adv-x="102" />
<glyph unicode="&#x2010;" horiz-adv-x="655" d="M74 561v74h504v-74h-504z" />
<glyph unicode="&#x2011;" horiz-adv-x="655" d="M74 561v74h504v-74h-504z" />
<glyph unicode="&#x2012;" horiz-adv-x="655" d="M74 561v74h504v-74h-504z" />
<glyph unicode="&#x2013;" horiz-adv-x="1081" d="M119 543v73h839v-73h-839z" />
<glyph unicode="&#x2014;" horiz-adv-x="1585" d="M119 543v73h1351v-73h-1351z" />
<glyph unicode="&#x2018;" horiz-adv-x="378" d="M82 1239q0 72 37 145q27 59 82 121l18 23l25 -25q8 -8 9 -14t1 -10q0 -8 -8 -21q-47 -63 -66.5 -110.5t-19.5 -90.5q0 -29 7 -50t21 -50q4 -8 5 -16q0 -6 -4.5 -15.5t-18.5 -17.5l-20 -10l-23 -11l-12 23q-33 57 -33 129z" />
<glyph unicode="&#x2019;" horiz-adv-x="378" d="M96 1124q0 8 8 21q47 63 66.5 110.5t19.5 90.5q0 29 -7 50t-21 50q-4 8 -4 16q0 6 4 15.5t18 17.5l21 10l22 11l13 -23q33 -57 32 -129q0 -72 -37 -145q-27 -59 -81 -121l-19 -23l-25 25q-8 8 -9 14t-1 10z" />
<glyph unicode="&#x201a;" horiz-adv-x="378" d="M96 -233q0 8 8 20q47 63 66.5 110.5t19.5 90.5q0 29 -7 50t-21 50q-4 8 -4 16q0 6 4 15.5t18 17.5l21 10l22 11l13 -23q33 -57 32 -129q0 -72 -37 -145q-27 -59 -81 -121l-19 -23l-25 25q-8 8 -9 14t-1 11z" />
<glyph unicode="&#x201c;" horiz-adv-x="624" d="M78 1233q0 72 37 145q27 59 82 121l18 23l25 -25q8 -8 9 -14t1 -10q0 -8 -8 -21q-47 -63 -66.5 -110.5t-19.5 -90.5q0 -29 7 -50t21 -50q4 -8 4 -16q0 -6 -4 -15.5t-18 -17.5l-21 -10l-22 -11l-12 23q-33 57 -33 129zM324 1233q0 72 36 145q27 59 82 121l19 23l24 -25 q8 -8 9.5 -14t1.5 -10q0 -8 -9 -21q-47 -63 -66.5 -110.5t-19.5 -90.5q0 -29 7.5 -50t21.5 -50q4 -8 4 -16q0 -6 -4 -15.5t-18 -17.5l-21 -10l-22 -11l-13 23q-33 57 -32 129z" />
<glyph unicode="&#x201d;" horiz-adv-x="624" d="M96 1124q0 8 8 21q47 63 66.5 110.5t19.5 90.5q0 29 -7 50t-21 50q-4 8 -4 16q0 6 4 15.5t18 17.5l21 10l22 11l13 -23q33 -57 32 -129q0 -72 -37 -145q-27 -59 -81 -121l-19 -23l-25 25q-8 8 -9 14t-1 10zM342 1124q0 8 8 21q47 63 66.5 110.5t19.5 90.5q0 29 -7 50 t-21 50q-4 8 -5 16q0 6 4.5 15.5t18.5 17.5l20 10l23 11l12 -23q33 -57 33 -129t-37 -145q-27 -59 -82 -121l-18 -23l-25 25q-8 8 -9 14t-1 10z" />
<glyph unicode="&#x201e;" horiz-adv-x="624" d="M96 -233q0 8 8 20q47 63 66.5 110.5t19.5 90.5q0 29 -7 50t-21 50q-4 8 -4 16q0 6 4 15.5t18 17.5l21 10l22 11l13 -23q33 -57 32 -129q0 -72 -37 -145q-27 -59 -81 -121l-19 -23l-25 25q-8 8 -9 14t-1 11zM342 -233q0 8 8 20q47 63 66.5 110.5t19.5 90.5q0 29 -7 50 t-21 50q-4 8 -5 16q0 6 4.5 15.5t18.5 17.5l20 10l23 11l12 -23q33 -57 33 -129t-37 -145q-27 -59 -82 -121l-18 -23l-25 25q-8 8 -9 14t-1 11z" />
<glyph unicode="&#x2022;" d="M362 612q0 48 18.5 90.5t50 74.5t73 50.5t88.5 18.5q48 0 90.5 -18.5t74 -50.5t50 -74.5t18.5 -90.5q0 -47 -18.5 -88.5t-50 -72.5t-74 -49.5t-90.5 -18.5q-47 0 -88.5 18.5t-73 49.5t-50 72.5t-18.5 88.5z" />
<glyph unicode="&#x2026;" horiz-adv-x="1341" d="M156 -61v211h77v-211h-77zM633 -61v211h78v-211h-78zM1116 -61v211h78v-211h-78z" />
<glyph unicode="&#x202f;" horiz-adv-x="370" />
<glyph unicode="&#x2039;" horiz-adv-x="622" d="M150 510v18l4 7l254 403l28 -18q35 -25 8 -64l-206 -330l-7 -6l7 -8l211 -334q2 -4 4 -9t2 -15q0 -23 -19 -35l-28 -19l-254 404z" />
<glyph unicode="&#x203a;" horiz-adv-x="622" d="M164 152q0 10 2 15t4 9l211 334l6 8l-6 6l-207 330q-27 39 8 64l29 18l254 -404l4 -6v-18l-4 -6l-254 -404l-29 19q-18 12 -18 35z" />
<glyph unicode="&#x205f;" horiz-adv-x="463" />
<glyph unicode="&#x20ac;" d="M-2 565v27v20v27h27h155q-2 16 -3 34.5t-1 37.5q0 23 1 45t3 43h-155h-27v26v21v26h27h161q16 131 56 236q47 117 118 195q74 84 170 122q98 43 218 43q131 0 227 -43q90 -41 176 -133l14 -16l-12 -16l-4 -7v-2l-2 -2q-4 -4 -10.5 -8t-18.5 -4q-10 0 -19 7t-20 18 q-16 14 -41.5 37.5t-65.5 44t-95.5 36t-128.5 15.5q-98 0 -185 -35q-84 -37 -145 -105q-63 -74 -103 -172q-18 -47 -30.5 -99t-20.5 -112h633h27v-26v-8q0 -4 -1 -11.5t-8 -15.5q-8 -10 -18 -11t-14 -1h-625q-2 -20 -3 -43t-1 -45q0 -18 1 -37t3 -35h547h26v-27v-8 q0 -39 -40 -39h-527q12 -125 49 -219q37 -106 101 -178q63 -74 145 -107q82 -37 184 -36q76 0 134.5 17t100.5 42t69.5 51.5t46.5 44.5q14 16 24 24.5t23 8.5q10 0 18 -5t12 -9l5 -4l16 -17l-16 -20q-84 -98 -179 -148q-111 -59 -256 -59q-115 0 -215 41q-94 41 -172 125 q-74 82 -116 200q-41 115 -54 248h-159h-27z" />
<glyph unicode="&#x2122;" horiz-adv-x="1449" d="M55 1384v74h523v-74h-222v-555h-77v555h-224zM678 829v629h41q12 0 20 -2q10 -4 17 -18l245 -396l238 396q10 20 33 20h41v-629h-74v467l-203 -338q-6 -12 -15 -16t-20 -4h-4q-23 0 -32 18l-211 342v-469h-76z" />
<glyph unicode="&#xe000;" horiz-adv-x="1028" d="M0 0v1029h1029v-1029h-1029z" />
</font>
</defs>
</svg>
