<?xml version="1.0" standalone="no"?>
<!DOCTYPE svg PUBLIC "-//W3C//DTD SVG 1.1//EN" "http://www.w3.org/Graphics/SVG/1.1/DTD/svg11.dtd" >
<svg xmlns="http://www.w3.org/2000/svg">
<metadata></metadata>
<defs>
<font id="untitledregular" horiz-adv-x="1024" >
<font-face units-per-em="2048" ascent="1536" descent="-512" />
<missing-glyph horiz-adv-x="500" />
<glyph horiz-adv-x="2048" />
<glyph horiz-adv-x="2048" />
<glyph unicode="&#xd;" horiz-adv-x="2048" />
<glyph unicode=" " />
<glyph unicode="0" horiz-adv-x="1705" d="M0 840q10 31 45 30h1595q35 0 46 -30q14 -27 -11 -52l-757 -757q-31 -33 -75 -33t-75 33l-758 757q-25 25 -10 52z" />
<glyph unicode="A" horiz-adv-x="1705" />
<glyph unicode="L" horiz-adv-x="1634" d="M0 31q0 23 16 39t41 16h1520q25 0 41 -16.5t16 -38.5v-318q0 -25 -16 -41t-41 -16h-1520q-25 0 -41 16.5t-16 40.5v318zM0 317v318q0 23 16 39t41 16h1520q25 0 41 -16.5t16 -38.5v-318q0 -25 -16 -41t-41 -16h-1520q-25 0 -41 16.5t-16 40.5zM0 918v317q0 23 16 39 t41 16h1520q25 0 41 -16.5t16 -38.5v-317q0 -25 -16 -41.5t-41 -16.5h-1520q-25 0 -41 16.5t-16 41.5z" />
<glyph unicode="g" horiz-adv-x="1634" d="M0 31q0 23 16 39t41 16h316q25 0 41 -16.5t16 -38.5v-318q0 -25 -16.5 -41t-40.5 -16h-316q-25 0 -41 16.5t-16 40.5v318zM0 315v318q0 23 16 39t41 16h316q25 0 41 -16.5t16 -38.5v-318q0 -25 -16.5 -41t-40.5 -16h-316q-25 0 -41 16.5t-16 40.5zM0 918v317q0 23 16 39 t41 16h316q25 0 41 -16.5t16 -38.5v-317q0 -25 -16.5 -41.5t-40.5 -16.5h-316q-25 0 -41 16.5t-16 41.5zM602 31q0 23 16 39t41 16h316q25 0 41 -16.5t16 -38.5v-318q0 -25 -16.5 -41t-40.5 -16h-316q-25 0 -41 16.5t-16 40.5v318zM602 315v318q0 23 16 39t41 16h316 q25 0 41 -16.5t16 -38.5v-318q0 -25 -16.5 -41t-40.5 -16h-316q-25 0 -41 16.5t-16 40.5zM602 918v317q0 23 16 39t41 16h316q25 0 41 -16.5t16 -38.5v-317q0 -25 -16.5 -41.5t-40.5 -16.5h-316q-25 0 -41 16.5t-16 41.5zM1204 31q0 23 16.5 39t41.5 16h315q25 0 41 -16.5 t16 -38.5v-318q0 -25 -16 -41t-41 -16h-315q-25 0 -41.5 16.5t-16.5 40.5v318zM1204 315v318q0 23 16.5 39t41.5 16h315q25 0 41 -16.5t16 -38.5v-318q0 -25 -16 -41t-41 -16h-315q-25 0 -41.5 16.5t-16.5 40.5zM1204 918v317q0 23 16.5 39t41.5 16h315q25 0 41 -16.5 t16 -38.5v-317q0 -25 -16 -41.5t-41 -16.5h-315q-25 0 -41.5 16.5t-16.5 41.5z" />
<glyph unicode="m" horiz-adv-x="1867" d="M2 72q0 23 16 39t41 16h1751q25 0 41.5 -16.5t16.5 -38.5v-340q0 -25 -16.5 -41.5t-41.5 -16.5h-1751q-25 0 -41 16.5t-16 41.5v340zM2 356v338q0 25 16 41.5t41 16.5h1751q25 0 41.5 -16.5t16.5 -41.5v-338q0 -25 -16.5 -41t-41.5 -16h-1751q-25 0 -41 16.5t-16 40.5z M2 979v340q0 25 16 41t41 16h1751q25 0 41.5 -16.5t16.5 -40.5v-340q0 -23 -16.5 -39t-41.5 -16h-1751q-25 0 -41 16t-16 39z" />
<glyph unicode="s" horiz-adv-x="1949" d="M-8 731q0 160 60.5 301.5t166 246.5t246.5 165.5t301 60.5t301 -60.5t246.5 -165.5t166 -246.5t60.5 -301.5q0 -111 -29.5 -211t-83.5 -190l527 -527l-260 -260l-527 527q-90 -53 -190 -83t-211 -30q-160 0 -301 60.5t-246.5 166t-166 246.5t-60.5 301zM287 731 q0 -98 37.5 -186t102.5 -152.5t153 -102.5t186 -38t186 38t152.5 102.5t102.5 152.5t38 186t-38 186.5t-102.5 153t-152.5 102t-186 37.5t-186 -37.5t-153 -102t-102.5 -153t-37.5 -186.5z" />
<glyph unicode="&#xa0;" />
<glyph unicode="&#x2000;" horiz-adv-x="752" />
<glyph unicode="&#x2001;" horiz-adv-x="1505" />
<glyph unicode="&#x2002;" horiz-adv-x="752" />
<glyph unicode="&#x2003;" horiz-adv-x="1505" />
<glyph unicode="&#x2004;" horiz-adv-x="501" />
<glyph unicode="&#x2005;" horiz-adv-x="376" />
<glyph unicode="&#x2006;" horiz-adv-x="250" />
<glyph unicode="&#x2007;" horiz-adv-x="250" />
<glyph unicode="&#x2008;" horiz-adv-x="188" />
<glyph unicode="&#x2009;" horiz-adv-x="301" />
<glyph unicode="&#x200a;" horiz-adv-x="83" />
<glyph unicode="&#x202f;" horiz-adv-x="301" />
<glyph unicode="&#x205f;" horiz-adv-x="376" />
<glyph unicode="&#xe000;" d="M0 0z" />
</font>
</defs>
</svg>
